Index Of Mp3 Chuck Berry


39: Remastered: See all 61 versions of the song My Ding-A-Ling. März 2017 in Saint Charles 16-CD Box (28 x 28 x 6 cm) mit 2 gebundenen Büchern (zus. mp3 zdarma ke stažení. The Invisible Man SoundtrackGoodfellas SoundtrackHeat SoundtrackHeat SoundtrackThe Equalizer 2 SoundtrackKick-Ass SoundtrackTraining Day SoundtrackDrive SoundtrackThe Italian Job SoundtrackSnatch Soundtrack. Goode 3:19 Chuck Berry with Bruce Springsteen & the E Street Band performing Johnny B. PERFORMER "Chuck Berry" INDEX 01 00:00:00 TRACK 02 AUDIO TITLE "I'm Just A Lucky So And So" PERFORMER "Chuck Berry" INDEX 00 02:04:30 FILE "02 - I'm Just A Lucky So And So. Buy Mp3 Music Online / Chuck Berry / St. Chuck Berry With Bruce Springsteen & The E Street Band - Johnny B. Convert iTunes audiobook and Audible audiobooks to MP3, M4A, etc. 51 MB), Video 3gp & mp4. 33 MB] Download MP3. P Chuck Berry. com, yandex ou rusfolder. Private ftp music server 0day mp3. date: 2006. Label: Ear Music (2) - none • Format: CD Album, Unofficial Release • Country: Russia • Genre: Rock • Style: Hard Rock. Search: Index Of Mp3 Chuck Berry. com (categorizations by composer, etc. 99 Play: No Particular Place To Go (Chuck Berry)_(A). Download MP3 Chuck Berry Full MP3 Gratis, Mudah Dan Cepat. net | The Most Sought After Free Ringtones Provider. 0mil truncated conical, 2. Fresh Body Shop: Maze. Bando "Sostegno alla creazione di start-up innovative - Operazione CUP ST 12378. School Days 9. Chuck Berry (Charles Edward Anderson Berry - born Oct. March 13, 2019. Hail! Hail! Rock 'n' Roll (Chuck Berry) 1987. Pharell Williams. 2020-09-03 | Rockabilly | flac 799 Kbps | 40:41 | 15 tracks | 255. Chuck Berry - Run Rudolph Run: 8. Michael Jackson. Chuck Berry was the best lyric writer in early rock and roll. Carol of the Bells John Williams. Chuck Berry is an immensely influential figure, and one of the pioneers of rock & roll music. DEUTSCH : Instrumental MP3 Instrumentalversion des Liedes "You Never Can Tell - Chuck Berry (INSTRUMENTAL)", das durch Chuck Berry bekannt wurde. Chuck berry in london - fresh berrys by Chuck Berry. 6M : Daft Punk/ - Dave Koz/ - Destinys Child/ - Dire Straits/ - Disclosure/ - Eagles/ - Ed Sheeran/ - EdithPiaf. Fresh Body Shop: Maze. ESCUCHAR MUSICA DE Chuck Berry You Never Can Tell Subtitulada MP3 FullTono Escuchar la mejor musica de Chuck Berry You Never Can Tell Subtitulada en calidad de mp3 HD alta Más calidad en 320kb y HD asi como ver los videos, tienes la opción de poder Másverlo y escucharlo desde tu celular o tablet en una muy buena calidad y disfrutar de Chuck Berry You Never Can Tell Subtitulada que te. Download Mp3 4. DEUTSCH : Instrumental MP3 Instrumentalversion des Liedes "You Never Can Tell - Chuck Berry (INSTRUMENTAL)", das durch Chuck Berry bekannt wurde. More facts on Chuck Berry: * In Rolling Stone's list of The Immortals—the 100 Greatest Artists of All Time, Chuck Berry is listed at Number Five. Cruisin' and playin' the radio. Buddy Holly - Brown Eyed Handsome Man (Remastered 2016) (02:05) 05. Private ftp music server 0day mp3. Escuchar la mejor musica de Chuck Berry en calidad de HQ alta calidad en 320kb, tienes la opción de poder escucharlo desde tu celular o tablet en una muy buena calidad y disfrutar de. Chuck Berry. nz , mediafire. In the tradition of Bobby Troup´s Route 66 or James Brown´s Night Train , the clever lyrics mention a load of cities as stopovers on the way to the promised land: sunny California. Dónde descargar canciones Chuck Berry's 1965 Belgium TV Appearance (Complete) Duración de la canción (40. Below are a few examples. So I told her. This lick is influenced by Chuck Berry's rhythmic solo style and contains a triplet feel throughout. Search: Index Of Mp3 Chuck Berry. Chuck Berry Route 66. Download MP3 Chuck Berry Route 66 MP3 Gratis, Mudah Dan Cepat. 2:38 New Guinea, men's house song, recorded by Robert MacLennan. Commodores gold cd album at cd universe. Roll Over Bethoven Re Record Chuck Berry. He is one of the pioneers of rock and roll music. Listen to music by Chuck Berry on Apple Music. 13 Album Only. Find the graves of ancestors, create virtual memorials or add photos, virtual flowers and a note to a loved one's memorial. Buddy Holly - Brown Eyed Handsome Man (Remastered 2016) (02:05) 05. 39: Remastered: See all 61 versions of the song My Ding-A-Ling. com (categorizations by composer, etc. A comprehensive A-Z list of over 300 songs recorded by The Beatles, from Love Me Do to Let It Be, plus fascinating articles on each, including rarities, TV and radio performances, trivia, artwork, and much more. Chuck Berry Video songs. Save $15 or $30 with Code: BMSM. 8mil truncated conical, 3. This lick is influenced by Chuck Berry's rhythmic solo style and contains a triplet feel throughout. Chuck berry in london - fresh berrys by Chuck Berry. Chuck Berry (Charles Edward Anderson Berry - born Oct. MP3 is a digital audio format without digital rights management (DRM) technology. 18, 1926, St. Cruisin' and playin' the radio. Charles Edward Anderson "Chuck" Berry is an American guitarist, singer, and song writer. Chuck Berry - in concert from Belgium - June 2, 1965 - RTBF, Belgium - Gordon Skene Sound Collection -. Go to download page : [4. Below are a few examples. 1957 - After School Session*1958 - One Dozen Berrys*1959 - Chuck Berry Is on Top*1960 - Rockin' At The Hops*1961 - New Juke-Box Hits*1963 - Chuck Berry on Stage1964 - St. Download MP3 Chuck Berry Full MP3 Gratis, Mudah Dan Cepat. By dubaikhalifas On Oct 26, 2021. Search: Index Of Mp3 Chuck Berry. Goode 3:19 Chuck Berry with Bruce Springsteen & the E Street Band performing Johnny B. Chuck Berry (born October 18, 1926, St. Listen with Music Unlimited. nz , mediafire. Select from over 20 languages and more than 100 voices! Loading Vocalware's TTS supports SSML tags, which allow you to control the manner in which the text in your app is spoken. Roll Over Bethoven Re Record Chuck Berry. date: 2006. Bo Diddley - Who Do You. Pat Metheny - Bright Size Life (1976) [2017, Japan, Remastered, Hi-Res SACD Rip] SACD-ISO / DSD / 1bit / 2. Got more? Get unlimited. every time that bell would ring. ESCUCHAR MUSICA DE Chuck Berry You Never Can Tell Subtitulada MP3 FullTono Escuchar la mejor musica de Chuck Berry You Never Can Tell Subtitulada en calidad de mp3 HD alta Más calidad en 320kb y HD asi como ver los videos, tienes la opción de poder Másverlo y escucharlo desde tu celular o tablet en una muy buena calidad y disfrutar de Chuck Berry You Never Can Tell Subtitulada que te. Watch First Ever Chuck Berry Music Video For Single Big Boys Doyouremember. Current Categories of Chuck Berry Songs Available (Stay tuned, We Keep updating it weekly) Chuck Berry songs. 2 m) Hanya Di SIMP3. My curiosity running wild. mp3 zdarma ke stažení. Chuck Berry, The Rock & Roll Pioneer. PERFORMER "Chuck Berry" INDEX 01 00:00:00 TRACK 02 AUDIO TITLE "I'm Just A Lucky So And So" PERFORMER "Chuck Berry" INDEX 00 02:04:30 FILE "02 - I'm Just A Lucky So And So. Chuck Berry guitar. Chuck Berry - Johnny B. Not the first rock and roll song by any means but it was the one that brought rock and roll into mainstream radio. by Chuck Berry. Chuck Berry - No Particular Place to Go: 6. mp3 zdarma ke stažení. Format: MP3+G karaoke files MP4 karaoke videos MP3 backing tracks Include: Pre-made discs Vocalist: Male Female Genre: Any genre Specific genres Acoustative Blues Bollywood Christmas Comedy/Novelty. Descargar musica MP3 Roll Over Bethoven Re Record Chuck Berry. You should use your first finger to hit the notes on the first and second strings, and your second finger for the double stops on the fourth and fifth strings, for the best access to the. Remove DRM from Apple Music without quality loss. 03 MB] Download MP3. Roll Over Bethoven Re Record Chuck Berry. Best of Chuck Berry Chuck Berry 2012 / Masters Of The Last Century Rating & Reviews. Uploading 0%. Скачать песню Chuck Berry — Johnny B. Chuck Berry is a English album released on 25 Mar 2014. Качество 128 кбит/с, размер 2. Chuck Berry. Press 3rd finger hard on the string - pick and slide down in rhythm. Offered in tribute to both!. Search: Index Of Mp3 Chuck Berry. Last Christmas SoundtrackGremlins SoundtrackValley of the Boom SoundtrackThe Holiday SoundtrackHome Alone 2: Lost in New York SoundtrackNoelle SoundtrackDaddy's Home 2 SoundtrackHow the Grinch Stole Christmas SoundtrackChristmas Vacation SoundtrackElf Soundtrack. Chuck Berry mp3. Discount: -20%; Release date: 2004; Duration: 40:11; Size, Mb: 92. Medium is an open platform where readers find dynamic thinking, and where expert and undiscovered voices can share their writing on any topic. It is not a consumer reporting agency as defined by The Fair Credit Reporting Act and should not be used to determine an individual's eligibility for personal credit or employment, or to assess risk associated with any business transactions such as tenant screening. Chuck Berry remains an influential figure and one of the pioneers of rock and roll music who first began performing in 1953. Secrets from the Deep. UPLOADING YOUR MUSIC. Bando "Sostegno alla creazione di start-up innovative - Operazione CUP ST 12378. Musique Mag : le site de l'actualité musicale. Run Rudolph Run (Single Version) - Chuck Berry download. 100% 100 % 1 Stahujte originální mp3 Chuck Berry - Run Rudolph Run, mp3 je ke stažení zdarma. You Might Like. Commodores gold cd album at cd universe. continue reading…. Maybellene Chuck Berry Mp3 Ringtone. Louis To Liverpool: 0: 27: download Berry Is On Top St. Malatikalano Polatina The Minions. date: 2006. MP3 is a digital audio format without digital rights management (DRM) technology. About Berry Chuck Mp3 Of Index. Chuck Berry. Descargar musica MP3 Roll Over Bethoven Re Record Chuck Berry. com, yandex or rusfolder. More facts on Chuck Berry: * In Rolling Stone's list of The Immortals—the 100 Greatest Artists of All Time, Chuck Berry is listed at Number Five. 2020-6-6 · hindi movie mp3 free download Purani Jeans MP3 Songs Free. Mathematics. go - Signal Drift (Using ChucK for Reversed Sounds + Modulated Sine Wave, Combined in Audacity with FM7) composer: soundvisionz. Chuck Berry - Run Rudolph Run. Select from over 20 languages and more than 100 voices! Loading Vocalware's TTS supports SSML tags, which allow you to control the manner in which the text in your app is spoken. Watch First Ever Chuck Berry Music Video For Single Big Boys Doyouremember. * Six of his songs are in Rolling Stone's Greatest 500 Songs Ever Written. Chuck Berry Video songs. The first wave of rock & rollers -- Chuck Berry, Elvis Presley, Little Richard, Jerry Lee Lewis, Buddy Holly, Bo Diddley, Bill Haley, Gene Vincent, the Everly Brothers, and Carl Perkins, among many others -- set the template for rock & roll that was followed over the next four decades. PERFORMER "Chuck Berry" INDEX 01 00:00:00 TRACK 02 AUDIO TITLE "I'm Just A Lucky So And So" PERFORMER "Chuck Berry" INDEX 00 02:04:30 FILE "02 - I'm Just A Lucky So And So. Chuck Berry New Songs - Download Chuck Berry mp3 songs list and latest albums, Songs Download, all best songs of Chuck Berry to your Hungama account. Goode - Chuck Berry (FROM THE FIFTIES!) Ring of Fire - Johnny Cash Lola - The Kinks Aquarius/Let The Sunshine In - the 5th Dimension I'm A Believer - The Monkees The Leader of the Pack - Shangra-Las Light My Fire - the Doors I Get Around - Beach Boys Lucy In The Sky With Diamonds - The Beatles. After few moments will be generated link to download video and you can start downloading. 6 out of 5 stars. Synced by Sairanato daze. We hope if you download Chuck Berry - My Ding A Ling - 1972 just for the review purpose only. Michael Jackson. He is one of the pioneers of rock and roll music. 18 MB(192kbps) Similar Videos. Only the soundtrack to Taylor Hackford's star-studded 1987 documentary Hail! Hail!. Chuck Berry - Little Queenie 3:36. Скачать(Download). We hope if you download Chuck Berry - Johnny B. About Index Chuck Of. Despicable Me Pharrell Williams. Chuck Berry - No Particular Place to Go: 6. go - Signal Drift (Using ChucK for Reversed Sounds + Modulated Sine Wave, Combined in Audacity with FM7) composer: soundvisionz. After few moments will be generated link to download video and you can start downloading. Chuck Berry - Run Rudolph Run. SOFT ROCK COLLECTION 20 April 2021. Album title Year Tracks Bitrate Price Order; Rock And Roll Music Any Old Way You Choose It Cd 16: On Stage 1972, Plus: 2014: 22: 320: $3. Find the best place to download latest songs by Chuck Berry. California, County Birth, Marriage, and Death Records, 1849-1980 at Ancestry/requires payment; coverage varies by county and type of record; includes some pre-1905 death registers for some counties; not complete but has 3 million entries, mostly marriages. Inducted into both the Songwriters Hall of Fame and the Rock and Roll Hall of Fame in 1986. Buddy Holly - Brown Eyed Handsome Man (Remastered 2016) (02:05) 05. Artist: Chuck Berry Album: Chuck Berry In London Genre: rock Release Date: 24032014 Label: Universal Tracks: 14 Playing Time: 00:35:13 Format: Mp3 Quality: 320Kbps. LOS ANGELES — Feature film director Taylor Hackford has agreed to shoot "Chuck Berry: Hail!Hail! Rock-n-Roll," a tribute concert that originally planned as a music video and has now escalated into a major Universal Studios theatrical project for release next year. CHUCK BERRY & KEITH RICHARDS - Nadine 2:31. Karaoke Backing Tracks Chuck Berry Mp3 Karaoke: on Songservice you will find all the Backing Tracks of Chuck Berry in Mp3 Karaoke ready for Download and your music performances. Download our mobile app now. Barely getting over the news of the passing of Blues icon, James Cotton, comes the devastating news that Chuck Berry is now gone. CD or MP3 Download. 49 MB, actualmente cuenta con un historial de descargas de 1693703 que va en aumento y superando a las demás canciones nuevas 2021. Correct lyrics. then mamma took me to grammar school. 18 MB(192kbps) Download Mp3 4. ⭐⭐⭐⭐⭐ Index Of Mp3 Chuck Berry; Views: 32030: Published: 30. This is a straight ahead 12 bar blues so perfect for practicing your blues and rock licks. 33; Format: MP3, 320 kbps. With songs such as "Maybellene" (1955), "Roll Over Beethoven" (1956), "Rock and Roll Music" (1957) and "Johnny B. So I told her. Download Balinese Dancer - Chuck Prophet mp3. mp3 Chuck Berry - Too Pooped To Pop (Casey) - 1959. Q1: Why it's better to download free Nigerian Nollywood movies? A: To be frank, it's well to watch movies online whether through Popcorn Time or Netflix provided a fast network connection is guaranteed. Too much monkey business for me to be involved in. go - Signal Drift (Using ChucK for Reversed Sounds + Modulated Sine Wave, Combined in Audacity with FM7) composer: soundvisionz. Charles County, Missouri, USA) was an American guitarist, singer and songwriter and one of the pioneers of rock and roll music. Chuck Berry - Johnny B. Escuchar musica de : Chuck Berry en la mejor calidad de este Grupo o Cantante de Música tenemos toda su discografía una lista musical con los mejores temas del momento. " All three songs were recorded at the same concert, with the album version of Johnny B. Elvis Presley. mp3 fue subido como audio y video en la nube de la plataforma Youtube, 31 Dec, 1969, su tamaño promedio en megabytes del archivo es de 5. Thirty Days 3. Check out Chuck Berry on Amazon Music. Goode 3:19 Chuck Berry with Bruce Springsteen & the E Street Band performing Johnny B. Parokya Ni Edgar. Chuck Berry - Maybellene: 5. Download the full application for free and. Listen to all songs in high quality & download Chuck Berry songs on Gaana. Goode, Berry developed a new refined rhythm and blues that made rock n' roll a distinctive sound. 3mil truncated conical. After few moments will be generated link to download video and you can start downloading. The Foo Fighters. Louis, Missouri, USA - died March 18, 2017, St. Chuck Berry album. Workin' in the fillin' station, too many tasks. Supported file types: MP3. com (categorizations by composer, etc. I don't want your botheration, go away, leave me be. Découvrez les derniers clips de vos artistes préférés, des interviews, des news et des albums à télécharger. 9k members in the Sum41 community. 2021: Author: peekara. 100% 100 % 1 Stahujte originální mp3 Chuck Berry - Run Rudolph Run, mp3 je ke stažení zdarma. Louis to Liverpool. He was sentenced to 5 years jail but after racist comments by the judge Berry was freed. Nghe bài hát Untitled Instrumental chất lượng cao 320 kbps lossless miễn phí. com, yandex ou rusfolder. You Never Can Tell MIDI File backing track. Album title Year Tracks Bitrate Price Order; Rock And Roll Music Any Old Way You Choose It Cd 16: On Stage 1972, Plus: 2014: 22: 320: $3. The best way to play the double stop parts in this riff is to barre a single finger of both notes. Over 12,000 titles including today's hottest hits, oldies, rock, country, latin, reggae, ethnic, disco, rap, blues, R&B, jazz, and more. Charles Edward Anderson "Chuck" Berry (October 18, 1926 - March 18, 2017) was an American songwriter, guitarist, and singer. Fender® FUSE™ is no longer actively supported by Fender. Now, after all the others have tried, Bear Family—arguably the ultimate archival reissue label—emerges with the ultimate Chuck Berry compilation. The invention that stole some of the glory, as well as revenue from the film industry in the 1950s. Midi and mp3 backup tracks available for arttist names beginning with a midi and mp3 backup tracks available for arttist names beginning with b. FROM MYSTIC PROPHECY & DEVIL'S TRAIN) RELEASE THE GOD MACHINE ALBUM ON You can pre-order the album in Ltd. Maybellene Chuck Berry Mp3 Ringtone Download – brought to you by Free-ringtones. December 30, 2018. My curiosity running wild. mp3: 7 "Johnny B. Chuck Berry Greatest Hits - Chuck Berry Best Blue - Chuck Berry All Album 2021. März 2017 in Saint Charles 16-CD Box (28 x 28 x 6 cm) mit 2 gebundenen Büchern (zus. Free commodores mp3 commodores mp3 download. Download "Chuck Berry - Maybelline (1955)" Download video "Chuck Berry - Maybelline (1955)" directly from youtube. Find the best place to download latest songs by Chuck Berry. Tags: chuck berry, chuck berry, chuck berry the autobiography by chuck berry, chuck berry autobiography, chuck berry book, chuck berry cd, chuck berry dvd, chuck berry, chuck berry is on top, chuck berry mp3, chuck berry songs, chuck berry johnny b goode, chuck berry death, chuck berry maybellene, chuck berry guitar, chuck berry duck walk. Chuck Berry - Sweet Little Sixteen (1958, American Bandstand reference) Levon Helm, 71, singer, drummer and composer, member of The Band, on April 19 The Band "" The Weight (1978) Levon Helm - No Depression In Heaven (2011, recorded 2008, vocals by Sheryl Crow) Greg Ham, 58, flautist and saxophonist of Men at Work, body found on April 19. mp3 Chuck Berry "" Maybellene (1955). Chuck Berry Pharrell Williams. About Berry Chuck Mp3 Of Index. The order is as chronologic as possible. Rider - 1957. Artist: Chuck Prophet Title: Balinese Dancer Date Of Release: 2007-08-16 Genre: Alternative Quality: MP3 320 kBit/s Total Size: 231 MB. Goode," written and performed by Chuck Berry. Goode - Chuck Berry (FROM THE FIFTIES!) Ring of Fire - Johnny Cash Lola - The Kinks Aquarius/Let The Sunshine In - the 5th Dimension I'm A Believer - The Monkees The Leader of the Pack - Shangra-Las Light My Fire - the Doors I Get Around - Beach Boys Lucy In The Sky With Diamonds - The Beatles. Louis, Missouri, USA - died March 18, 2017, St. FROM MYSTIC PROPHECY & DEVIL'S TRAIN) RELEASE THE GOD MACHINE ALBUM ON You can pre-order the album in Ltd. Since the very childhood Chuck has been interested in music, and very soon it became something bigger than just a favorite hobby. 39: Remastered: See all 61 versions of the song My Ding-A-Ling. He is one of the pioneers of rock and roll music. Supported file types: MP3. In order to help preserve the original records, please request the Mearse transcription through interlibrary loan. You Never Can Tell MIDI File backing track. Linda Mearse has transcribed the records on file in the State Archives in her book, Confederate Indigent Families Lists of Texas 1863-1865. Bo Diddley - Who Do You. Now, after all the others have tried, Bear Family—arguably the ultimate archival reissue label—emerges with the ultimate Chuck Berry compilation. But in case you are suffering from a slow speed network or cannot ensure the long-time buffering and ads, to download Nollywood movies beforehand is highly recommended. Goode concluding with an announcer pleading with the crowd to make room so that Pink Floyd. mp3 Johnny Be Good Une explosante reprise du tube de Chuck Bery par Bon Scott, Angus et les membres de Cheap Trick interprétée en. zip: 18M : Elvis Presley/ - Eminem/ - Enrico Caruso/ - Farzad-Farzin-Mahe-Asal. They are all freely downloadable from the website and can be shared freely for the glory of God. Country-western music was big at the time, so Berry decided to use some of the riffs and create his own unique hillbilly sound. INSTANT DEATH RECORDS SEARCH. Hail! Hail! Rock 'n' Roll (Chuck Berry) 1987. Descargar Mp3 Cf3746 Mp3 Chuck Berry 2022 Descargar Cf3746 Mp3 Chuck Berry MP3 en alta calidad (HD) resultados, lo nuevo de sus canciones y videos que estan de moda este 2022, bajar musica de Cf3746 Mp3 Chuck Berry en diferentes formatos de audio mp3 Chuck Berry Greatest Hits - Chuck Berry Best Blue Songs - Chuck Berry All Songs Full Album 2021 MP3 calidad. 0coincidences 30 September 2009. Joann Marie on Sum 41 Chuck Album Download Rar derpedr. rar La catégorie du style est: Art rock Experimental rock Progressive rock. they tried to teach me the golden rule. Goode 3:19 Chuck Berry with Bruce Springsteen & the E Street Band performing Johnny B. Although Brian has written defenses of the song’s. mid Free Midi download (mid file) music, mp3, Celebrity Photo, direct download index A to Z , midi ringtones, concept and ticket bts1. Chuck Berry Greatest Hits - Chuck Berry Best Blue - Chuck Berry All Album 2021. Synced by Sairanato daze. Chuck Berry - Sweet Little Sixteen (1958, American Bandstand reference) Levon Helm, 71, singer, drummer and composer, member of The Band, on April 19 The Band "" The Weight (1978) Levon Helm - No Depression In Heaven (2011, recorded 2008, vocals by Sheryl Crow) Greg Ham, 58, flautist and saxophonist of Men at Work, body found on April 19. Các bạn có thể nghe, download (tải nhạc) bài hát untitled instrumental mp3, playlist/album, MV/Video untitled instrumental miễn phí tại NhacCuaTui. Exploring Sweet Little Sixteen Chuck Berry. Chuck Berry. The clippety-clop rhythms of rockabilly would not have been mainstreamed into the standard 4/4 rock & roll beat. About Berry Chuck Mp3 Of Index. Roll Over Bethoven Re Record Chuck Berry. Go to download page : [6. by Chuck Berry. zip: 18M : Elvis Presley/ - Eminem/ - Enrico Caruso/ - Farzad-Farzin-Mahe-Asal. Informations du téléchargement libre pour l'album de Art rock Experimental rock Progressive rock album Frank Zappa - Road Tapes, Venue #2 - Finlandia Hall, Helsinki, Finland 23, 24 August, 1973 (2013) compressé dans un fichier au format. When I was a little bitty boy My Grandmother gave me a cute little toy Silver bells hanging on a string She told me it was my ding-a-ling-a-ling. performed by plork. ⭐⭐⭐⭐⭐ Index Of Mp3 Chuck Berry; Views: 32030: Published: 30. mp3 Chuck Willis - C. Maybellene Chuck Berry Mp3 Ringtone is available for download :. Another artist Chuck Berry inspired was John Lennon who once said, "If you tried to give rock and roll another name, you might call it Chuck Berry. I'm anxious to tell her the way I feel. Bo Diddley - Who Do You. 3mil truncated conical. Search: Index Of Mp3 Chuck Berry. 0mil truncated conical, 2. He is one of the pioneers of rock and roll music. 8mil truncated conical, 3. Elvis Presley. Koop 'I'm Looking for an Angel van Chuck Berry' MP3 download online 7digital Nederland - Ruim 25 miljoen tracks van hoge kwaliteit in onze winkel. com, yandex ou rusfolder. mp3 Chuck Berry - You Never Can Tell - 1964. Danny & The Juniors - At The Hop. you also can download Chuck Berry - Johnny B. My curiosity running wild. Not the first rock and roll song by any means but it was the one that brought rock and roll into mainstream radio. Free commodores mp3 commodores mp3 download. Foo Fighters - "Run Rudolph Run" (Chuck Berry Cover) New Music December 15, 2020 8:53 PM By Chris DeVille. Banda/Cantor(a): Chuck Berry Gênero: Rock & Roll, Rhythm & Blues Ano de Lançamento: 1982 Tamanho: 157 Mb / Rar / 320Kbps Servidor: Mega / Mediafire »Track List: 1. The clippety-clop rhythms of rockabilly would not have been mainstreamed into the standard 4/4 rock & roll beat. 0, Rolloff: -13. wav" WAVE INDEX 01 00:00:00 TRACK 03 AUDIO TITLE "Mad Lad (instrumental)" PERFORMER "Chuck Berry" INDEX 00 02:50:20 FILE "03 - Mad Lad (instrumental). The Index of Viola Music. mp3 Johnny Be Good Une explosante reprise du tube de Chuck Bery par Bon Scott, Angus et les membres de Cheap Trick interprétée en. chuck berry rock and roll music with etta james; chuck berry little queenie; chuck berry johnny b goode with julian lennon; chuck berry wee wee hours with eric clapton; chuck berry back in the u s a with linda ronstadt; chuck berry too much monkey business; chuck berry memphis tennessee; yannek maunz tesseract. Although Brian has written defenses of the song’s. Discover Rock And Roll Music Instrumental MP3 as made famous by Chuck Berry. Chuck Berry - Johnny B. Mathematics. zip archive downloading links from mega. With his songs Maybellene, Roll Over Beethoven, Rock and Roll Music, and Johnny B. ESPANOL : Versión instrumental de la canción "You Never Can Tell - Chuck Berry (INSTRUMENTAL)" popularizada por Chuck Berry, en el formato Instrumental MP3. savabla MP3 CBR kbps MB Tracklist + Tracklinks: ciklon5 Title Of Album: Rock And Roll Music: The Songs Of Chuck Berry. Chuck Berry - in concert from Belgium - June 2, 1965 - RTBF, Belgium - Gordon Skene Sound Collection -. Koop 'I'm Looking for an Angel van Chuck Berry' MP3 download online 7digital Nederland - Ruim 25 miljoen tracks van hoge kwaliteit in onze winkel. Sort recordings by title, artist, year of release, year inducted into the Registry, and genre by using the up and down arrows at the top of each column. Chuck Berry - Run Rudolph Run: 8. Goode - Chuck Berry (FROM THE FIFTIES!) Ring of Fire - Johnny Cash Lola - The Kinks Aquarius/Let The Sunshine In - the 5th Dimension I'm A Believer - The Monkees The Leader of the Pack - Shangra-Las Light My Fire - the Doors I Get Around - Beach Boys Lucy In The Sky With Diamonds - The Beatles. März 2017 in Saint Charles 16-CD Box (28 x 28 x 6 cm) mit 2 gebundenen Büchern (zus. 33 MB] Download MP3. About File Formats. Because our MP3s have no DRM, you can play. Louis to Liverpool. 2021: Author: pitsuyuku. ⭐⭐⭐⭐⭐ Index Of Mp3 Chuck Berry; Views: 32030: Published: 30. 2021: Author: peekara. Chuck Berry With Bruce Springsteen & The E Street Band - Johnny B. Malatikalano Polatina The Minions. composer: Scott Smallwood and Ge Wang. Chuck Berry Greatest Hits - Chuck Berry Best Blue - Chuck Berry All Album 2021. He combined those lyrics with great music that made you want to get up and move. Chuck Berry. You Never Can Tell MIDI File backing track. Chuck berry in london - fresh berrys by Chuck Berry. Chuck Berry/ - Classic/ - Crazy in Love. You should use your first finger to hit the notes on the first and second strings, and your second finger for the double stops on the fourth and fifth strings, for the best access to the. Run Rudolph Run (Single Version) - Chuck Berry on Greece top 100 recent charts. Chuck Berry - Roll over Beethoven: 4. Escuchar Música de Chuck Berry y toda sus canciones Johnny B Goode, Memphis Tennessee, Maybellene, Let It Rock, Berry Pickin, Run Rudolph Run, Rip It Up, Im Talking About You, Rock And Roll Music, Go Go Go, Deep Feeling, Darlin, Our Little Rendezvous, Thats My Desire, Roll Over Beethoven, Carol, Little Queenie, Sweet Little Sixteen, Downbound Train, You Cant Catch Me. Bando "Sostegno alla creazione di start-up innovative - Operazione CUP ST 12378. Chuck Berry - Rock & Roll Music (Remastered) (02:31) 02. Elvis Presley - Hound Dog (Remastered) (02:16) 03. Charles County, Missouri, USA) was an American guitarist, singer and songwriter and one of the pioneers of rock and roll music. but i stopped off in the vestibule. Buy Mp3 Music Online / Chuck Berry / St. Berry had only one Top 40 hit after "My Ding-a-Ling" - a PG-rated version of his late '50s hit "Reelin' and 'Rockin" backed by a live version of "Johnny B. 0 favorites; Embed; Share. 68 MB 192 Kbps Tradurre. Download Mp3 4. Fresh Body Shop: Maze. Goode concluding with an announcer pleading with the crowd to make room so that Pink Floyd. Bear Family has always wanted to put out a Chuck Berry comp. Danny & The Juniors - At The Hop. Goode (live 1958) for legal on Apple Music or iTunes officiall music artist. Download "Chuck Berry - Maybelline (1955)" Download video "Chuck Berry - Maybelline (1955)" directly from youtube. About Berry Chuck Mp3 Of Index. mp3 Johnny Be Good Une explosante reprise du tube de Chuck Bery par Bon Scott, Angus et les membres de Cheap Trick interprétée en. 2021: Author: peekara. Скачать песню Chuck Berry — Johnny B. zip téléchargeable depuis les liens mega. Chuck Berry, who will be honored tonight by Motorhead's Lemmy Kilmister and other artists in a concert at PlayhouseSquare's State Theatre, is one of the hard rocker's heroes. About Index Chuck Of. Find the best place to download latest songs by Chuck Berry. Elvis Presley - Hound Dog (Remastered) (02:16) 03. Chuck Berry - My Ding A Ling - 1972 music file uploaded on 01 May 2020 by edPLAY. Goode Az öncə əlavə edildi Chuck Berry's 1965 Belgium TV Appearance (Complete) Az öncə əlavə edildi Chuck Berry - Greatest solo on Johnny B. Goode at The Concert for the Rock and Roll Hall of Fame in 1995 in Cleveland, Ohio. Chuck berry in london - fresh berrys by Chuck Berry. You should use your first finger to hit the notes on the first and second strings, and your second finger for the double stops on the fourth and fifth strings, for the best access to the. La communauté Free Hard Music propose aussi des téléchargements de musique de gratuits de Chuck Berry La discographie est en MP3 320 kbit/s l'album est une archive au format. More facts on Chuck Berry: * In Rolling Stone's list of The Immortals—the 100 Greatest Artists of All Time, Chuck Berry is listed at Number Five. Listen with Music Unlimited. Download "Chuck Berry - Maybelline (1955)" Download video "Chuck Berry - Maybelline (1955)" directly from youtube. wav" WAVE INDEX 01 00:00. Taylor Hackford. All times are UTC. - GLD 25461 • Format: 3x, CD Compilation • Country: Europe • Genre: Rock, Blues • Style: Rock & Roll. Free Shipping. Chuck Brown: 20 assigned downloads, like MP3 Shocks Band - A Dedication To Alan Zill from music. com (categorizations by composer, etc. 53 Mb Length: 2:34. Despicable Me 3 Score Suite Heitor Pereira. The legendary musician and virtuosic guitarist Chuck Berry (full name Charles Edward Anderson Berry) was born in 1926 in St. The first wave of rock & rollers -- Chuck Berry, Elvis Presley, Little Richard, Jerry Lee Lewis, Buddy Holly, Bo Diddley, Bill Haley, Gene Vincent, the Everly Brothers, and Carl Perkins, among many others -- set the template for rock & roll that was followed over the next four decades. Yellow Rose of Texas. Goode concluding with an announcer pleading with the crowd to make room so that Pink Floyd. Current Categories of Chuck Berry Songs Available (Stay tuned, We Keep updating it weekly) Chuck Berry songs. Louis To Liverpool: 0: 27: download Berry Is On Top St. the transistor. The invention that made it possible for the youth to listen to music of their choosing. The order is as chronologic as possible. ⭐⭐⭐⭐⭐ Index Of Mp3 Chuck Berry; Views: 32030: Published: 30. In the tradition of Bobby Troup´s Route 66 or James Brown´s Night Train , the clever lyrics mention a load of cities as stopovers on the way to the promised land: sunny California. Bill Haley - Rock Around The Clock. 03 MiB, ULed by l. Goode at The Concert for the Rock and Roll Hall of Fame in 1995 in Cleveland, Ohio. it: Index Of Mp3 Chuck Berry. Search: Index Of Mp3 Chuck Berry. Always Send Me To This Retailer By using this service, you agree to use of cookies. Featuring the song My Ding-A-Ling MP3 download and Lyrics. Скачать песню Chuck Berry — Little Queenie (Alternate) бесплатно в mp3. * Six of his songs are in Rolling Stone's Greatest 500 Songs Ever Written. Goode at The Concert for the Rock and Roll Hall of Fame in 1995 in Cleveland, Ohio. Label: Ear Music (2) - none • Format: CD Album, Unofficial Release • Country: Russia • Genre: Rock • Style: Hard Rock. Page 1 of 2 [ 27 posts ] Go to page 1, 2 Next Previous topic | Next topic : Author Message; mpublicover Post subject: R. Ca khúc Untitled Instrumental do ca sĩ Chuck Berry thể hiện, thuộc thể loại Pop. Louis To Liverpool*1964 - Two Great Guitars1965 - Chuck Berry in London*1965 - Fresh Berry's*1967 - Chuck Berry In Memphis1968 - From St Louie To Frisco1969 - Concerto. No Money Down MP3 Song: Download No Money Down mp3 song from Sweetheart. School Of Rock Musical Script Free Download Unter der Marke National Geographic finden sich neben dem Oscar®-Gewinner „Free Solo" auch Inhalte wie die BAFTA-nominierte Dokumentation „Jane", der Sundance. About Berry Chuck Of Index Mp3. Chuck Berry - Sweet Little Sixteen: 7. Buddy Holly - Brown Eyed Handsome Man (Remastered 2016) (02:05) 05. bad guy Billie Eilish. Search: Index Of Mp3 Chuck Berry. Digitized at 78 revolutions per minute. Chuck Berry guitar. Tracklist: 1 - Baton Rouge 2 - 110º In the Shade 3 - Savannah 4 - Balinese Dancer 5 - Starcrossed Misbegotten Love 6 - One Last Dance 7 - Who Am I Foolin 8 - Heart. Negative Øhio everybody who built the carpal tunnel went blind afterwards. go - Signal Drift (Using ChucK for Reversed Sounds + Modulated Sine Wave, Combined in Audacity with FM7) composer: soundvisionz. Chuck Berry Carol 45 Rpm 00:02:48 min 3. More facts on Chuck Berry: * In Rolling Stone's list of The Immortals—the 100 Greatest Artists of All Time, Chuck Berry is listed at Number Five. Goode," written and performed by Chuck Berry. 2021: Author: peekara. Listen to your favorite songs from The Best Of Chuck Berry 20th Century Masters The Millennium Collection by Chuck Berry Now. These are bootlegs with material from only one or two shows or from the same band. Carol of the Bells John Williams. Listen No Money Down mp3 songs free online by Chuck Berry. Just chose the format and click on the button "Download". 03 MB] Download MP3. Chuck Berry, The Rock & Roll Pioneer. With his songs Maybellene, Roll Over Beethoven, Rock and Roll Music, and Johnny B. Sanctified. California Death Records. Buddy Holly - Brown Eyed Handsome Man (Remastered 2016) (02:05) 05. Our today’s throwback hit song comes from the talented singer who is known by the stage name Chuck Berry unleashed another incredible masterpiece track dubbed “My Ding-A-Ling“. In The Morning Light. 1957 - After School Session*1958 - One Dozen Berrys*1959 - Chuck Berry Is on Top*1960 - Rockin' At The Hops*1961 - New Juke-Box Hits*1963 - Chuck Berry on Stage1964 - St. Download Too Much Monkey Business - Chuck Berry - Chuck Berry Live & In The Studio (CD) album flac mp3 2010 Label: IMC Music Ltd. Buddy Holly - Thatll Be The Day. The Index of Viola Music. 169000020" named "CVOL21", project co-financed under Tuscany POR CreO FESR. This song was a hit for Chuck in 1964, and in 1974 for Elvis. Listen to freely downloadable audio sermons by the speaker Chuck Swindoll in mp3 format. Goode at The Concert for the Rock and Roll Hall of Fame in 1995 in Cleveland, Ohio. Chuck Berry - Rock & Roll Music (Remastered) (02:31) 02. Chuck Berry is a English album released on 25 Mar 2014. Over 12,000 titles including today's hottest hits, oldies, rock, country, latin, reggae, ethnic, disco, rap, blues, R&B, jazz, and more. In this teaching, Chuck Parry takes us on a journey through Joshua chapter 3, showing that we in Christ are a free-born people, a priestly people, a people who carry the Presence of God. 2021: Author: pitsuyuku. Download backing music in midi and CD formats. Louis, Missouri, USA - died March 18, 2017, St. About Berry Chuck Mp3 Of Index. mp3 fue subido como audio y video en la nube de la plataforma Youtube, 31 Dec, 1969, su tamaño promedio en megabytes del archivo es de 5. Digipack CD (incl. They are 2. Chuck Berry - Run Rudolph Run. mp3: 8 "Hey Jude" - The Beatles (1968) from the LP Hey Jude / The Beatles Again: iTunes Amazon. Скачать(Download). Uploading 0%. Over 12,000 titles including today's hottest hits, oldies, rock, country, latin, reggae, ethnic, disco, rap, blues, R&B, jazz, and more. Play Download. Roll Over Bethoven Re Record Chuck Berry. Charles Edward Anderson "Chuck" Berry (October 18, 1926 - March 18, 2017) was an American songwriter, guitarist, and singer. Cub Koda wrote, "Of all the early breakthrough rock & roll artists, none is more important to the development of the music. Keith Richards invited a roster of great musicians to honor Chuck Berry for an evening of music to commemorate Berry's 60th birthday. 49 MB, actualmente cuenta con un historial de descargas de 1693703 que va en aumento y superando a las demás canciones nuevas 2021. Chuck Berry - in concert from Belgium - June 2, 1965 - RTBF, Belgium - Gordon Skene Sound Collection -. Chuck Berry New Songs - Download Chuck Berry mp3 songs list and latest albums, Songs Download, all best songs of Chuck Berry to your Hungama account. Elvis Presley - Hound Dog (Remastered) (02:16) 03. Chuck Berry Album has 20 songs sung by Chuck Berry. Maybellene 2. Click to download: Download torrent chuck berry greatest hits >>> Download songs computer memory card <<< torrent chuck berry greatest hits. 68 MB 192 Kbps Traduzir. PERFORMER "Chuck Berry" INDEX 01 00:00:00 TRACK 02 AUDIO TITLE "I'm Just A Lucky So And So" PERFORMER "Chuck Berry" INDEX 00 02:04:30 FILE "02 - I'm Just A Lucky So And So. First released in 1997, 'The Best Of Fourplay' showcases the smooth jazz supergroup's signature style of indelible melodies, tasteful arrangements and addictive, toe-tapping groove. Fats Domino - Ain't That A Shame? (Remastered 2017) (02:24) 04. Chuck Berry Album has 20 songs sung by Chuck Berry. 2021: Author: peekara. It was in 1953 that Chuck Berry joined the Sir John's Trio (eventually renamed the Chuck Berry Combo), which played the popular Cosmopolitan Club in St. About Berry Chuck Mp3 Of Index. Preview our Text-to-Speech Voices & Features. 03 MiB, ULed by l. Goode - Chuck Berry Johnny Yuma The Rebel- Johnny Cash Joker - Steve Miller Band Joy To The World - Three Dog Night Judy In Disguise - John Fred And The Playboys Judy's Turn To Cry - Leslie Gore Jumpin' Jack Flash- Rolling Stones (Revised)(10/16/2015) Jump Shout Boogie- Barry Manilow. Tracklist: 1 - Baton Rouge 2 - 110º In the Shade 3 - Savannah 4 - Balinese Dancer 5 - Starcrossed Misbegotten Love 6 - One Last Dance 7 - Who Am I Foolin 8 - Heart. wav" WAVE INDEX 01 00:00:00 TRACK 03 AUDIO TITLE "Mad Lad (instrumental)" PERFORMER "Chuck Berry" INDEX 00 02:50:20 FILE "03 - Mad Lad (instrumental). Rank Song Title Song Artist Year Genre; Top songs of the 1950's is updated by the minute by Gigbuilder - The world's most popular Event Management System. Marvin gaye lyrics mercy, mercy me (the ecology). Chuck Berry - Run Rudolph Run. Chuck Berry is a English album released on 25 Mar 2014. Stream ad-free with Amazon Music Unlimited on mobile, desktop, and tablet. Chuck Berry' 1959 rock'n'roll classic which is said to be the direct inspiration for The Beatles' Get Back as well as Humble Pie's Natural Born Bugie. Index of /mp3/mp3_3776 Name Last Modified Size Description - Clublife - Warm up 26-Jan-2006 4M. Chuck Berry (Charles Edward Anderson Berry - born Oct. Chuck Berry. Download backing music in midi and CD formats. DEUTSCH : Instrumental MP3 Instrumentalversion des Liedes "You Never Can Tell - Chuck Berry (INSTRUMENTAL)", das durch Chuck Berry bekannt wurde. Download MP3 Chuck Berry Full MP3 Gratis, Mudah Dan Cepat. The database is an international joint work by Fred Rothwell, England, author of "Long Distance information - Chuck Berry's Recorded Legacy", Morten Reff, Norway, author of "The Chuck Berry International Directory", and Dietmar Rudolph, Germany, author of "A Collector's Guide to the Music of Chuck Berry" featuring collaboration from Thierry. Click to download: Download torrent chuck berry greatest hits >>> Download songs computer memory card <<< torrent chuck berry greatest hits. Run Rudolph Run (Single Version) - Chuck Berry download. P Chuck Berry. Taken from the Hail! Ha. 2 m) del artista Bts MP3 Complete y Teryahud File, Free and Stable. Mathematics. Chorus: My ding-a-ling, my ding-a-ling Won't you play with my ding-a-ling My ding-a-ling, my ding-a-ling I want you to play with my ding-a-ling-a-ling. it: Berry Chuck Mp3 Of Index. Label: Ear Music (2) - none • Format: CD Album, Unofficial Release • Country: Russia • Genre: Rock • Style: Hard Rock. With his songs Maybellene, Roll Over Beethoven, Rock and Roll Music, and Johnny B. Chuck Berry album. The clippety-clop rhythms of rockabilly would not have been mainstreamed into the standard 4/4 rock & roll beat. : 1: That's Amore: Dean Martin: 1953: Oldies: 2: Come Fly With Me: Frank Sinatra. Dave Grohl is in the midst of a holiday-inspired covers frenzy. zip téléchargeable depuis les liens mega. The Christmas song of the talented singer who is known by the stage name Chuck Berry unleashed another exotic masterpiece track dubbed “Run Rudolph Run“. ⭐⭐⭐⭐⭐ Index Of Mp3 Chuck Berry; Views: 32030: Published: 30. Chuck Berry - Sweet Little Sixteen (1958, American Bandstand reference) Levon Helm, 71, singer, drummer and composer, member of The Band, on April 19 The Band "" The Weight (1978) Levon Helm - No Depression In Heaven (2011, recorded 2008, vocals by Sheryl Crow) Greg Ham, 58, flautist and saxophonist of Men at Work, body found on April 19. We hope if you download Chuck Berry - My Ding A Ling - 1972 just for the review purpose only. Band: Chuck Berry Album: Chuck Genre: Rock 'n' Roll Year: 2017 Size: 81,23 MB Format: Mp3 Quality: 320kbps. They are all freely downloadable from the website and can be shared freely for the glory of God. Keith Richards invited a roster of great musicians to honor Chuck Berry for an evening of music to commemorate Berry's 60th birthday. Stream ad-free with Amazon Music Unlimited on mobile, desktop, and tablet. 2021: Author: peekara. then mamma took me to grammar school. Log in to Facebook to start sharing and connecting with your friends, family and people you know. Ca khúc Untitled Instrumental do ca sĩ Chuck Berry thể hiện, thuộc thể loại Pop. More lyrics from the album. Chuck Berry 18. With his songs Maybellene, Roll Over Beethoven, Rock and Roll Music, and Johnny B. If you are look for Index Of Mp3 Chuck Berry, simply found out our info below :. mp3: 8 "Hey Jude" - The Beatles (1968) from the LP Hey Jude / The Beatles Again: iTunes Amazon. Inducted into both the Songwriters Hall of Fame and the Rock and Roll Hall of Fame in 1986. Chuck Chuck Berry. CANCEL Upload Folders Upload Files. 13 Album Only.