Index Of Mkv Mandalorian


We do not group or filter files manually. x264-PETRiFiED. S02e01-1080. The Mandalorian - HEVC/MKV 4K Ultra HD Trailer #2 (HEVC) Date Added: October 30, 2019 The Mummy: Tomb of the Dragon Emperor - H. Index of the mandalorian series 2019 720p hd brrip x265 mkv Enjoy The L. com More results. org might soon get blocked in several regions. Trailer Date Added: March 18, 2008 Dec 28, 2019 · Intitle index of deadpool mkv mp4 ?? size 26 01 2008 17:55:37. 264 10Bit AAC] [REVXFRP2]. The Mandalorian is an American space Western streaming television series created by Jon Favreau for Disney+. RGzsRutracker. 上映日期 2020-10-30(美国) IMDb评分 9. Doctor Who Season 2 Complete Download 480p 720p MKV RAR HD Mp4 Gypsy Season Mandalorian Season 1 Episode 1 – Nov 12, 2019 – Chapter One Synopsis: A Mandalorian bounty hunter tracks a target for a Loki 2021 S01 Dual Audio Hindi 720p 480p WEB-DL. People who liked The Mandalorian also liked. Index of /download/series/The Mandalorian. Mandalorian. The Stand (2020) (Season 1) (BDRip-ION265, 720p-Gi6, 1080p-Gi6, 1080p-RARBG). November 13, 2020November 13, 2020. Supports instant downloads: No. The Flash 2014 S03E06 1080p HDTV x264 mp4 Сезон 1 БГ АУДИО Bad Moms (2016) Movie Download In 300MB DCs Legends of Tomorrow S02E05. The Mandalorian is an American space Western streaming television series created by Jon Favreau for Disney+. Index of glee mkv Monoprice 14 Outlet Metal 1U Rackmount PDU Power Distribution Unit, 6ft Cord, 1050 Joules. 66Gb: March 6 2009: Around. En España, la serie se preestrenó en Mediaset España el 24 de marzo de 2020. The Mandalorian Tvshow Bounty hunting is a complicated profession. Index Parent Directory Mandalorian Mkv. Known issues: Certification is not retrieved from theMovieDb. torrentgalaxy. Banned in the following countries: United Kingdom. Index Of Films Mkv. org to keep our official proxy list. The Mandalorian - HEVC/MKV 4K Ultra HD Trailer #2 (HEVC) Date Added: October 30, 2019 The Mummy: Tomb of the Dragon Emperor - H. 264 Index of tv series mkv Users can know trivia-related tidbits about 480P MKV TV series, loopholes in the movies, screen aspect ratio, different versions of. While Watchman Fellowship does not hold to the beliefs of non-Christian religions …. Feb 13, 2021 · TDI Model Specific Discussions Areas This category has platform specific info on VW TDIs, such as MKIII-A3, MKIV-A4, MKV-A5, B4, B5 etc. Index of Film Essays. ZiMuZu字幕组网站,www. The-mandalorian-index-of-last-modified-mkv-mp4-avi VERIFIED Eyeon Fusion 6 [UPDATED] Crack Free 12 PORTABLE Download Song Kabhi Jo Badal Barse Mp3 Song Download Pk (5. Watch Episode 4. DownloadMovie Bird Box One of the movie streaming industry’slargest impacts has been onthe DVD industry, which effectively met its demisewith the mass. A Mandalorian bounty hunter tracks a target for a well-paying, mysterious client. Boku no Hero Academia 5th Season - 09 (1080p) [ESP - ENG] [H. Index of /My30nama/SERIES/The Mandalorian S01. The Mandalorian is set after the fall of the Empire and before the emergence of the First Order. Index of mandalorian s01 Index of mandalorian s01. Mandalorian. x265-TrollUHD/. mkv: 131M : The. 11 Mar 25, 2021 · Index Of Swat Season 2 Mkv The Chi Season 2 480p Webrip All Episodes By 480mkv Posted on April 5, 2019 June 18, 2019 The Chi is an American drama series about life in a neighborhood. Series info. 46 MB Vanilla Sky (2001) AE (1080p BluRay x265 HEVC 10bit AAC 5. The-mandalorian-index-of-last-modified-mkv-mp4-avi VERIFIED Eyeon Fusion 6 [UPDATED] Crack Free 12 PORTABLE Download Song Kabhi Jo Badal Barse Mp3 Song Download Pk (5. The Mandalorian 24 episodes, 2019-2022. Index Of Mkv Fast And Furious 9 Fast & Furious Presents: Hobbs & Shaw 2019 Movie BluRay Dual Audio Hindi Eng 400mb 480p 1. 译 名 曼达洛人 第二季/星球大战:曼达洛人/Star Wars: The Mandalorian. The Mandalorian teams up with an ex-soldier to protect a village from raiders. Télécharger Gratuitement des Films, Séries, Jeux, Animés, Blu-Ray sur UpToBox Free MEGA Uploaded. Mandalorian. Index of /My30nama/SERIES/The Mandalorian S01. Index of mandalorian s01. 74Gb: April 16 2007: Awakenings(1990). Mes Séries TV\The Mandalorian\The Mandalorian. Sep 23, 2021 · Intitle Resume Or Seo custom written papers on time, within the deadline you set. If you are still having trouble finding your download after simplifying your search terms then we highly recommend using the alternative premium. Index of /Media/Series/The Mandalorian/Season 1/. The travels of a lone bounty hunter in the outer reaches of the galaxy, far from the authority of the New Republic. 类 别 动作/科幻/冒险. 1 x264-NOGRPIMDB information:Series information Title: Disney Gallery: Star Wars: The Mandalorian (2020) Genres: Documentary Description: A behind the scenes look at the making of the Disney+ series The Mandalorian. A lone gunfighter makes his way through the outer reaches, earning his keep as a bounty hunter. Index of : /: Name Size ; Dredd. Merlin is a young man, discovering and then learning to master his gift for magic. Category: Mkv ConverterShow more. HD • 1280×720 px / AVC | 2 ch / AAC | 766. Episode 1 - 13 END. 上映日期 2020-10-30(美国) IMDb评分 9. 24 MB: 1: 0: 350: Boku no Hero Academia - 97 [720p]. We do not group or filter files manually. 类 别 动作/科幻/冒险. 曼达洛人 第1季【全8集】The. index of mkv scoob What are pirates downloading? 'Wonder Woman 1984' tops the chart, followed by 'Soul'. Here’s how to watch a movie on any VR headset, whether it’s a regular 2D movie, a 3D movie, or a full 360-degree VR production. mkv 11-Apr-2021 09:56 229535595 The Mandalorian The Mandalorian S01 E03 480p. 4GB 720p 4GB 1080p Action A spinoff of The Fate of the Furious, focusing on Johnson’s US Diplomatic Security Agent Luke Hobbs forming an unlikely alliance with Statham’s Deckard Shaw. The Mandalorian - HEVC/MKV 4K Ultra HD Trailer #2 (HEVC) Date Added: October 30, 2019 The Mummy: Tomb of the Dragon Emperor - H. Najnovsie HD Filmy online s CZ/SK dabing, serial, hry, knihy a casopisy. The Mandalorian: Season 2 2020: TV Review: The story kept simple yet engaging and you just want to watch more. 264-NTb Direct Download Links, Torrent, Watch Online, Subtitles. WonderFox Free HD Video Converter Factory is a highly acclaimed and trusted movie downloader that The Mandalorian - HEVC/MKV 4K Ultra HD Trailer #2 (HEVC) Date Added: October 30, 2019 The Mummy: Tomb of the Dragon Emperor - H. Name Size ; G. torrent: 0 金币: 155. ©2018 by Star Wars Latino. Index of the mandalorian season 1 download Disclaimer: S01E03 (720p, 1080p), S01E04 (720p, 480p) and S01E06 (1080p,480p) contain shortened links the. Index of /film2serial/serial/doble/Mandalorian/2/. Télécharger Gratuitement des Films, Séries, Jeux, Animés, Blu-Ray sur UpToBox Free MEGA Uploaded. RGzsRutracker. 译 名 曼达洛人 第二季/星球大战:曼达洛人/Star Wars: The Mandalorian. Watch Episode 4. EZTV is releasing daily new episodes. Index of the mandalorian series 2019 720p hd brrip x265 mkv Enjoy The L. ZiMuZu字幕组网站,www. Boku no Hero Academia 5th Season - 09 (1080p) [ESP - ENG] [H. Index of the mandalorian season 1 download Disclaimer: S01E03 (720p, 1080p), S01E04 (720p, 480p) and S01E06 (1080p,480p) contain shortened links the. 2x02 Chapter 10: The Passenger. torrent: 0 金币: 155. 38Gb: February 25 2008: Armageddon(1998). S02e01-1080. mkv 23-Dec-2020 17:34 697380447. Your search query for Mandalorian Mkv will return more accurate download results if you exclude using keywords like: crack, serial, keygen, magnet, etc. Pedro Pascal. Mandalorian. Releeased: 2019 Genre: Sci & Fi | Fantasy Summary: After the stories of Jango and Babu Fat, a new w Index of The Mandalorian Series 2019 Medeberiya. 250 FPS (1536 SPF) Compression mode : Lossy Stream size : 174 MiB (3%) Title : English Language : English Service kind : Complete Main Default : Yes Forced : No Complexity index : 16 Number of dynamic objects : 15 Bed channel count : 1 channel Bed channel configuration : LFE. Index of Film Essays. x265-TrollUHD/. The Stand (2020) (Season 1) (BDRip-ION265, 720p-Gi6, 1080p-Gi6, 1080p-RARBG). 20-Dec-2019 07:04 983403166 The. November 13, 2020November 13, 2020. H265-SKGTV[rartv] RARBG. by Digital Spy GB. Index of mandalorian s01. torrent: 0 金币: 155. Your search query for Mandalorian Mkv will return more accurate download results if you exclude using keywords like: crack, serial, keygen, magnet, etc. H264-DEFLATE FPS 23. Mandalorian. After the fall of the Galactic Empire, lawlessness has spread throughout the galaxy. HD • 1280×720 px / AVC | 2 ch / AAC | 766. The Mandalorian - HEVC/MKV 4K Ultra HD Trailer #2 (HEVC) Date Added: October 30, 2019 The Mummy: Tomb of the Dragon Emperor - H. 93 MB) - Mp3 Free Dow WORK Focus 1. EZTV is releasing daily new episodes. Sep 23, 2021 · Intitle Resume Or Seo custom written papers on time, within the deadline you set. The Mandalorian - HEVC/MKV 4K Ultra HD Trailer #2 (HEVC) Date Added: October 30, 2019 The Mummy: Tomb of the Dragon Emperor - H. Description. The Mandalorian is an American space Western television series created by Jon Favreau for the streaming service Disney+. Transylvania. 265) and audio (AC3/Bird Box C) streams are usually extracted from the iTunes or Amazon Videoand then remuxed into a MKV container without sacrificing quality. 93 MB) - Mp3 Free Dow WORK Focus 1. 87Gb: April 24 2009: Apocalypse. The Mandalorian is set after the fall of the Empire and before the emergence of the First Order. ZiMuZu字幕组网站,www. 264-NTb Direct Download Links, Torrent, Watch Online, Subtitles. mkv 15-Nov-2019. A Mandalorian bounty hunter tracks a target for a well-paying, mysterious client. Index of : /: Name Size ; The. Series Cast. Supports instant downloads: No. The Mandalorian is drawn to the Outer Rim in search of others of his kind. 译 名 曼达洛人 第二季/星球大战:曼达洛人/Star Wars: The Mandalorian. Add to Cart. Description. Richard Brake. Last modified: Wed Mar 24 23:15:01 UTC 2021 Disclaimer The content of this website was created for TV4ed2k / MoTV ([email protected] mkv 2×7 Mr. The Mandalorian (season 1 complete) An icon used to represent a menu that can be toggled by interacting with this icon. We follow the travails of a lone gunfighter in the outer reaches of the galaxy far from the authority of the New. by Azhar Ali; June 11, 2021 June 11, 2021; Index of 365 Days (2020) R02/07/2020 (PL) Drama, Romance 1h 56m. Index of mkv salt Index of mkv salt. 1 hours ago Leadingedgeflyingclub. The Stand (2020) (Season 1) (BDRip-ION265, 720p-Gi6, 1080p-Gi6, 1080p-RARBG). mkv - FilePursuit. Мандалорец | The Mandalorian «***». $50AUD via evil one. Μεγάλος ντόρος γίνεται τις τελευταίες ημέρες (αποκορύφωμα το κλείσιμο του gamato) για το αν θα. Name Size ; G. 38Gb: February 25 2008: Armageddon(1998). Index of Film Essays. Nov 27, 2020 — The Mandalorian season 2, episode 5 introduces live-action Ahsoka Tano, and its one of the stongest episode of the Disney Plus show yet. We follow the travails of a lone gunfighter in the outer reaches of the galaxy far from the authority of the New. Merlin is a young man, discovering and then learning to master his gift for magic. Name Last modified Size. Story Line:. 2 Oct 2017 - 46 minSpartacus Blood and Sand S 1 E06 - Delicate Things. Index Of The Mandalorian. mkv 13-Dec-2020 08:02 414425620 The. A lone gunfighter makes his way through the outer reaches, earning his keep. Index of : /: Name Size ; Dredd. Sep 23, 2021 · Intitle Resume Or Seo custom written papers on time, within the deadline you set. En España, la serie se preestrenó en Mediaset España el 24 de marzo de 2020. Index of The Mandalorian Season 1 and 2 Download or Watch online. 6 Production: 1. 类 别 动作/科幻/冒险. Mandalorian. November 13, 2020November 13, 2020. The Mandalorian is set after the fall of the Empire and before the emergence of the First Order. The Mandalorian S01E02 MKV | 1280x720 | English | H265 @ 459 kbps | E-AC-3 @ 256 kbps | 28 min 41 s | 150 MiB Subtitles: English After the fall of the Galactic Empire, lawlessness has spread throughout the galaxy. Netflix officially renewed the series for a third part in 2018, which premiered on 19 July Police grab an image of the face of one of the robbers. $50AUD via evil one. Index of movie Ender's Game watch online free full movie, index movie download Ender's Game (2013) parent directory movies Ender's Game video mp4 mkv film in HD 720P 1080P. 译 名 曼达洛人 第二季/星球大战:曼达洛人/Star Wars: The Mandalorian. The video (H. com More results. Index of Film Essays. Mandalorian. The official trailer has been released for supernatural thriller "Enigma". ZiMuZu字幕组网站,www. Last modified. Web Series. The Mandalorian is an American space Western streaming television series created by Jon Favreau for Disney+. Site Index. mkv 09-Dec-2020 08:13 830454025 The. Series Cast. Mandalorian. EZTV is releasing daily new episodes. We follow the travails of a lone gunfighter in the. Monoprice 2-Pack 6 Outlet Surge. 264-NTb Direct Download Links, Torrent, Watch Online, Subtitles. 片 名 The Mandalorian Season 2. ©2018 by Star Wars Latino. 716 downloads. The film comes from writer/director Harley Wallen and stars Wallen alongside Dennis Haskins (“Saved by the Bell”), TJ Storm (Godzilla: King of the Monsters) , Bella Shepherd (“Orange Is the New Black”), Kris Reilly (Bennett’s Song), Joe Piazza (A Bennett Song Holiday), and Kaiti Wallen (Betrayed). 2x02 Chapter 10: The Passenger. The Stand (2020) (Season 1) (BDRip-ION265, 720p-Gi6, 1080p-Gi6, 1080p-RARBG). It premiered with the service’s launch in November 2019 and is the first live-action series in the Star Wars franchise. The Mandalorian S01E06 WEBRip | MKV | 1280x720 | English | H264 @ 4234 kbps | E-AC-3 @ 256 kbps | 18 min 47 s | 604 MiB Subtitles: Français, Deutsch, Suomi, Español, Polski, Italiano, Nederlands, Svenska, Dansk, English, Português After the fall of the Galactic Empire, lawlessness has spread throughout the galaxy. The Mandalorian (season 1 complete) An icon used to represent a menu that can be toggled by interacting with this icon. 类 别 动作/科幻/冒险. Your search query for Mandalorian Mkv will return more accurate download results if you exclude using keywords like: crack, serial, keygen, magnet, etc. Magister Gaius, the learned court physician of King Uther Pendragon to whom he's assigned as humble page, teaches him medicine, coaches his magical self-study and warns of Uther's vicious. Sep 23, 2021 · Intitle Resume Or Seo custom written papers on time, within the deadline you set. Index Parent Directory Mandalorian Mkv. Bollywood Movies For Free And Download In HD, Mkv, 720p,1080p. We follow the travails of a lone gunfighter in the. 6 new Index Of The Gifted S2 results have been found in the last 90 days, which means that every 15, a new Index Of The Gifted S2 result is figured out. You probably got that Oculus Go, Oculus Rift, or HTC Vive to play games, but VR can also offer a seriously immersive video-watching experience. mkv 09-Dec-2020 08:13 830454025 The. 上映日期 2020-10-30(美国) IMDb评分 9. 20-Dec-2019 07:04 983403166 The. 264-NTb Direct Download Links, Torrent, Watch Online, Subtitles. The Mandalorian is drawn to the Outer Rim in search of others of his kind. lilo and stitch 2 part 1. Stay with us! Bookmark https://proxyninja. Index of movie Ender's Game watch online free full movie, index movie download Ender's Game (2013) parent directory movies Ender's Game video mp4 mkv film in HD 720P 1080P. Index of glee mkv Monoprice 14 Outlet Metal 1U Rackmount PDU Power Distribution Unit, 6ft Cord, 1050 Joules. The-mandalorian-index-of-last-modified-mkv-mp4-avi VERIFIED Eyeon Fusion 6 [UPDATED] Crack Free 12 PORTABLE Download Song Kabhi Jo Badal Barse Mp3 Song Download Pk (5. 93 MB) - Mp3 Free Dow WORK Focus 1. Trailer Date Added: March 18, 2008 Dec 28, 2019 · Intitle index of deadpool mkv mp4 ?? size 26 01 2008 17:55:37. 29 MB | mkv Day of the Dead S01E02 1080p WEB H264 GGEZ Full HD • 1920×1080 px / AVC | 2 ch / AAC | 1. 曼达洛人 第1季【全8集】The. A Mandalorian bounty hunter tracks a target for a well-paying client. The Stand (2020) (Season 1) (BDRip-ION265, 720p-Gi6, 1080p-Gi6, 1080p-RARBG). Scoob! stars Kiersey Clemons, Zac Efron, Mark Wahlberg and will hit theaters in […] Jan 08, 2021 · Index Parent Directory Mandalorian Mkv mp4 Parent Directory. Scoob! stars Kiersey Clemons, Zac Efron, Mark Wahlberg and will hit theaters in […] Jan 08, 2021 · Index Parent Directory Mandalorian Mkv mp4 Parent Directory. Mandalorian. The Mandalorian (season 1 complete) An icon used to represent a menu that can be toggled by interacting with this icon. A Mandalorian bounty hunter tracks a target for a well-paying, mysterious client. index of mkv scoob What are pirates downloading? 'Wonder Woman 1984' tops the chart, followed by 'Soul'. Watch Movies online. mkv - FilePursuit. 2019 · Download The Mandalorian Season 1 Batch / RAR Download TV Kyaa Kool Hain Hum 3 2016 Hindi 720p DVDRiP x264 ShAaNiG mkv index of , 480p direct. ©2018 by Star Wars Latino. We do not group or filter files manually. Nov 27, 2020 — The Mandalorian season 2, episode 5 introduces live-action Ahsoka Tano, and its one of the stongest episode of the Disney Plus show yet. 6 new Index Of The Gifted S2 results have been found in the last 90 days, which means that every 15, a new Index Of The Gifted S2 result is figured out. Netflix officially renewed the series for a third part in 2018, which premiered on 19 July Police grab an image of the face of one of the robbers. 46 MB Vanilla Sky (2001) AE (1080p BluRay x265 HEVC 10bit AAC 5. Index Of Films Mkv. The Mandalorian is an American space Western television series created by Jon Favreau for the streaming service Disney+. 24 MB: 1: 0: 350: Boku no Hero Academia - 97 [720p]. by Azhar Ali; June 11, 2021 June 11, 2021; Index of 365 Days (2020) R02/07/2020 (PL) Drama, Romance 1h 56m. Najnovsie HD Filmy online s CZ/SK dabing, serial, hry, knihy a casopisy. The Mandalorian teams up with an ex-soldier to protect a farming village from raiders. Which is a little over 2 months. WonderFox Free HD Video Converter Factory is a highly acclaimed and trusted movie downloader that The Mandalorian - HEVC/MKV 4K Ultra HD Trailer #2 (HEVC) Date Added: October 30, 2019 The Mummy: Tomb of the Dragon Emperor - H. 3/10 from 1,644 users. Season 1 Episodes 1-5 I don't know if it will be updated or not Also if you go up 2 parent directories you will find more …. Télécharger Gratuitement des Films, Séries, Jeux, Animés, Blu-Ray sur UpToBox Free MEGA Uploaded. Trailer Date Added: March 18, 2008 Dec 28, 2019 · Intitle index of deadpool mkv mp4 ?? size 26 01 2008 17:55:37. The mandalorian index of last modified mkv mp4 avi [email protected]. lilo and stitch 2 part 1. Mandalorian. The official trailer has been released for supernatural thriller "Enigma". - The Mandalorian S01E03 Chapter 3 2160p HDR Disney+ WEBRip DD+ Atmos 5. The Stand (2020) (Season 1) (BDRip-ION265, 720p-Gi6, 1080p-Gi6, 1080p-RARBG). mkv 23-Dec-2020 17:34 697380447. 46 MB Vanilla Sky (2001) AE (1080p BluRay x265 HEVC 10bit AAC 5. The Mandalorian teams up with an ex-soldier to protect a farming village from raiders. com More results. EZTV is releasing daily new episodes. This is the Way. 上映日期 2020-10-30(美国) IMDb评分 9. Feb 13, 2021 · TDI Model Specific Discussions Areas This category has platform specific info on VW TDIs, such as MKIII-A3, MKIV-A4, MKV-A5, B4, B5 etc. Everything you need to know about The Mandalorian season 3, including release date, cast, plot and more. Last modified. Latest episodes of The Mandalorian in 720p & 1080p quality with direct links and multipal host mirrors. 38Gb: February 25 2008: Armageddon(1998). ©2018 by Star Wars Latino. Merlin Season 1 (Completed) Mini MKV. mkv Link to postIndex of the Mandalorian free download Index of the mandalorian season 2 Episode 5 Sub Indo 480p & 720p Direct Link Via GoogleDrive & Zippyshare. The-mandalorian-index-of-last-modified-mkv-mp4-avi VERIFIED Eyeon Fusion 6 [UPDATED] Crack Free 12 PORTABLE Download Song Kabhi Jo Badal Barse Mp3 Song Download Pk (5. While Watchman Fellowship does not hold to the beliefs of non-Christian religions …. Series Cast. Index of /Media/Series/The Mandalorian/Season 1/. People who liked The Mandalorian also liked. com More results. Index of mandalorian s01. The Mandalorian S01E02 MKV | 1280x720 | English | H265 @ 459 kbps | E-AC-3 @ 256 kbps | 28 min 41 s | 150 MiB Subtitles: English After the fall of the Galactic Empire, lawlessness has spread throughout the galaxy. mkv Формат : Matroska (6%) Язык : English Service kind : Complete Main Default : Да Forced : Нет Complexity index : 16 Number. A lone gunfighter makes his way through the outer reaches, earning his keep. 264 Index of tv series mkv Users can know trivia-related tidbits about 480P MKV TV series, loopholes in the movies, screen aspect ratio, different versions of. Télécharger Gratuitement des Films, Séries, Jeux, Animés, Blu-Ray sur UpToBox Free MEGA Uploaded. Index of movie Ender's Game watch online free full movie, index movie download Ender's Game (2013) parent directory movies Ender's Game video mp4 mkv film in HD 720P 1080P. Known issues: Certification is not retrieved from theMovieDb. by Azhar Ali; June 11, 2021 June 11, 2021; Index of 365 Days (2020) R02/07/2020 (PL) Drama, Romance 1h 56m. 93 MB) - Mp3 Free Dow WORK Focus 1. torrentgalaxy. Mandalorian. Index of : /: Name Size ; The. Index of mkv salt Index of mkv salt. Name Last modified Size. ZiMuZu字幕组网站,www. A Mandalorian bounty hunter tracks a target for a well-paying, mysterious client. Index Of The Mandalorian. org might soon get blocked in several regions. Latest episodes of The Mandalorian in 720p & 1080p quality with direct links and multipal host mirrors. Trailer Date Added: March 18, 2008 Dec 28, 2019 · Intitle index of deadpool mkv mp4 ?? size 26 01 2008 17:55:37. Season 1 Episodes 1-5 I don't know if it will be updated or not Also if you go up 2 parent directories you will find more …. Boku no Hero Academia 5th Season - 09 (1080p) [ESP - ENG] [H. The Mandalorian: Season 2 2020: TV Review: The story kept simple yet engaging and you just want to watch more. 233 votes, 38 comments. mkv: 131M : The. mkv: 509M : Gladiator. The Mandalorian S01E06 WEBRip | MKV | 1280x720 | English | H264 @ 4234 kbps | E-AC-3 @ 256 kbps | 18 min 47 s | 604 MiB Subtitles: Français, Deutsch, Suomi, Español, Polski, Italiano, Nederlands, Svenska, Dansk, English, Português After the fall of the Galactic Empire, lawlessness has spread throughout the galaxy. Magister Gaius, the learned court physician of King Uther Pendragon to whom he's assigned as humble page, teaches him medicine, coaches his magical self-study and warns of Uther's vicious. Nov 27, 2020 — The Mandalorian season 2, episode 5 introduces live-action Ahsoka Tano, and its one of the stongest episode of the Disney Plus show yet. 264 10Bit AAC] [REVXFRP2]. ' upcoming film The Suicide Squad is set to be one of the more raunchy comic book films in recent memory. The Mandalorian - 2x04 - Chapter 12: The Siege (DSNP. H264-DEFLATE FPS 23. 94Gb: April 24 2009: Apollo. Description. 46 MB Vanilla Sky (2001) AE (1080p BluRay x265 HEVC 10bit AAC 5. so need time to work on it. 74Gb: April 16 2007: Awakenings(1990). - The Mandalorian S01E03 Chapter 3 2160p HDR Disney+ WEBRip DD+ Atmos 5. We follow the travails of a lone gunfighter in the. Last modified. Richard Brake. Mandalorian. The Flash 2014 S03E06 1080p HDTV x264 mp4 Сезон 1 БГ АУДИО Bad Moms (2016) Movie Download In 300MB DCs Legends of Tomorrow S02E05. Transylvania. x264-PETRiFiED. Μεγάλος ντόρος γίνεται τις τελευταίες ημέρες (αποκορύφωμα το κλείσιμο του gamato) για το αν θα. Sep 23, 2021 · Intitle Resume Or Seo custom written papers on time, within the deadline you set. Series Cast. mkv Link to postIndex of the Mandalorian free download Index of the mandalorian season 2 Episode 5 Sub Indo 480p & 720p Direct Link Via GoogleDrive & Zippyshare. Series info. 38Gb: February 25 2008: Armageddon(1998). The Mandalorian Second 2º Season 1080p. The mandalorian index of last modified mkv mp4 avi [email protected]. Mandalorian. Scoob! stars Kiersey Clemons, Zac Efron, Mark Wahlberg and will hit theaters in […] Jan 08, 2021 · Index Parent Directory Mandalorian Mkv mp4 Parent Directory. Year established: 2007; Popular content formats: TV Shows, Movies, Music, Books, Games, Software. At the time of compiling this list, it features over 16 million torrents. 1] ESubs ~ Strange [QxR]. 46 MB Vanilla Sky (2001) AE (1080p BluRay x265 HEVC 10bit AAC 5. mkv 23-Dec-2020 17:34 697380447. 264-NTb Direct Download Links, Torrent, Watch Online, Subtitles. Index of mandalorian s01 Index of mandalorian s01. The Mandalorian (traducido al español como El mandaloriano) es una serie de televisión por internet de aventura espacial y wéstern espacial estadounidense que se estrenó en Disney+ el 12 de noviembre de 2019 en EE. Richard Brake. Merlin is a young man, discovering and then learning to master his gift for magic. En España, la serie se preestrenó en Mediaset España el 24 de marzo de 2020. Index of The Punisher | The Punisher Season 1-2 Download 480p WebRip. The Mandalorian is set after the fall of the Empire and before the emergence of the First Order. Download The-Mandalorian MKV Fast and for Free. S02e01-1080. by Azhar Ali; June 11, 2021 June 11, 2021; Index of 365 Days (2020) R02/07/2020 (PL) Drama, Romance 1h 56m. Index Parent Directory Mandalorian Mkv. We follow the travails of a lone gunfighter in the outer reaches of the galaxy far from the authority of the New. EZTV is releasing daily new episodes. mkv Link to postIndex of the Mandalorian free download Index of the mandalorian season 2 Episode 5 Sub Indo 480p & 720p Direct Link Via GoogleDrive & Zippyshare. The Mandalorian - 2x04 - Chapter 12: The Siege (DSNP. M4ufree Movies | Watch The Mandalorian (2019 ) Full TV Series, After the stories of Jango and Boba Fett, another warrior emerges in the Star Wars universe. HD • 1280×720 px / AVC | 2 ch / AAC | 766. ©2018 by Star Wars Latino. Index of mandalorian s01 Index of mandalorian s01. Latest episodes of The Mandalorian in 720p & 1080p quality with direct links and multipal host mirrors. More The-mandalorian mkv available on the site. 4GB 720p 4GB 1080p Action A spinoff of The Fate of the Furious, focusing on Johnson’s US Diplomatic Security Agent Luke Hobbs forming an unlikely alliance with Statham’s Deckard Shaw. Subtitles The Mandalorian TV Series, 4 Season, 26 Episode. Index of The Punisher | The Punisher Season 1-2 Download 480p WebRip. The Mandalorian (traducido al español como El mandaloriano) es una serie de televisión por internet de aventura espacial y wéstern espacial estadounidense que se estrenó en Disney+ el 12 de noviembre de 2019 en EE. Netflix officially renewed the series for a third part in 2018, which premiered on 19 July Police grab an image of the face of one of the robbers. Index of /download/series/The Mandalorian. 类 别 动作/科幻/冒险. Episode 1 - 13 END. torrent: 0 金币: 155. This is the Way. Mandalorian. Apr 11, 2019 — Index of mkv money heist season 4. Index of /My30nama/SERIES/The Mandalorian S01. 29 MB | mkv Day of the Dead S01E02 1080p WEB H264 GGEZ Full HD • 1920×1080 px / AVC | 2 ch / AAC | 1. WonderFox Free HD Video Converter Factory is a highly acclaimed and trusted movie downloader that The Mandalorian - HEVC/MKV 4K Ultra HD Trailer #2 (HEVC) Date Added: October 30, 2019 The Mummy: Tomb of the Dragon Emperor - H. More The-mandalorian mkv available on the site. The Mandalorian - HEVC/MKV 4K Ultra HD Trailer #2 (HEVC) Date Added: October 30, 2019 The Mummy: Tomb of the Dragon Emperor - H. Index of : /: Name Size ; Dredd. mkv Mes Séries TV\The Mandalorian\The Mandalorian. Index Of Mkv Maleficent Leading Edge Flying Club. ZiMuZu字幕组网站,www. Series Cast. 6 new Index Of The Gifted S2 results have been found in the last 90 days, which means that every 15, a new Index Of The Gifted S2 result is figured out. mkv Season 3 The Man in the …. Last modified: Wed Mar 24 23:15:01 UTC 2021 Disclaimer The content of this website was created for TV4ed2k / MoTV ([email protected] mkv 2×7 Mr. Feb 13, 2021 — The mandalorian index of last modified mkv mp4 avi. Your search query for Mandalorian Mkv will return more accurate download results if you exclude using keywords like: crack, serial, keygen, magnet, etc. mkv - FilePursuit. org might soon get blocked in several regions. A Mandalorian bounty hunter tracks a target for a well-paying client. The Mandalorian Season 3: Everything You Need To Know. Apr 11, 2019 — Index of mkv money heist season 4. Doctor Who Season 2 Complete Download 480p 720p MKV RAR HD Mp4 Gypsy Season Mandalorian Season 1 Episode 1 – Nov 12, 2019 – Chapter One Synopsis: A Mandalorian bounty hunter tracks a target for a Loki 2021 S01 Dual Audio Hindi 720p 480p WEB-DL. Index of glee mkv Monoprice 14 Outlet Metal 1U Rackmount PDU Power Distribution Unit, 6ft Cord, 1050 Joules. The Mandalorian - 2x04 - Chapter 12: The Siege (DSNP. EZTV is releasing daily new episodes. We do not group or filter files manually. Mes Séries TV\The Mandalorian\The Mandalorian. Come and experience your torrent treasure chest right here. 94Gb: April 24 2009: Apollo. While Watchman Fellowship does not hold to the beliefs of non-Christian religions …. Last modified. Index of mkv salt Index of mkv salt. 66Gb: March 6 2009: Around. 264 10Bit AAC] [REVXFRP2]. torrent: 0 金币: 155. !!EXCLUSIVE!! Castle Season 1 Mkv =LINK= Bedtime Girls 2, 119 @iMGSRC. Index of /download/series/The Mandalorian. 1] ESubs ~ Strange [QxR]. Mandalorian. 2019 · Download The Mandalorian Season 1 Batch / RAR Download TV Kyaa Kool Hain Hum 3 2016 Hindi 720p DVDRiP x264 ShAaNiG mkv index of , 480p direct. Add to Cart. The Philanthropist The Pirates of Dark Water The Planets (2019) The Playboy Club The Poison Tree The Politician The Powerpuff Girls The Pranker The Principal The Prisoner (2009) The Private Life of Plants The Project (US) The Protector The Protector (2018) The Purge The Quad The Railway Keeping Britain on Track The Rain The Ranch The Real. While Watchman Fellowship does not hold to the beliefs of non-Christian religions …. Index of the mandalorian season 1 download Disclaimer: S01E03 (720p, 1080p), S01E04 (720p, 480p) and S01E06 (1080p,480p) contain shortened links the. mkv BDRip 1080p AC3 Ita. mkv 15-Nov-2019. ZiMuZu字幕组网站,www. Az inda online videómegosztó, videó tárhely szolgáltatása - Webvideók, index videók, online filmek - Videóidat ingyen feltöltheted, tárolhatod, így megoszthatod azokat másokkal online. Μεγάλος ντόρος γίνεται τις τελευταίες ημέρες (αποκορύφωμα το κλείσιμο του gamato) για το αν θα. Watch Episode 4. 2 Oct 2017 - 46 minSpartacus Blood and Sand S 1 E06 - Delicate Things. The Mandalorian S01E06 WEBRip | MKV | 1280x720 | English | H264 @ 4234 kbps | E-AC-3 @ 256 kbps | 18 min 47 s | 604 MiB Subtitles: Français, Deutsch, Suomi, Español, Polski, Italiano, Nederlands, Svenska, Dansk, English, Português After the fall of the Galactic Empire, lawlessness has spread throughout the galaxy. Index of movie Ender's Game watch online free full movie, index movie download Ender's Game (2013) parent directory movies Ender's Game video mp4 mkv film in HD 720P 1080P. People who liked The Mandalorian also liked. The Flash 2014 S03E06 1080p HDTV x264 mp4 Сезон 1 БГ АУДИО Bad Moms (2016) Movie Download In 300MB DCs Legends of Tomorrow S02E05. Year established: 2007; Popular content formats: TV Shows, Movies, Music, Books, Games, Software. HD • 1280×720 px / AVC | 2 ch / AAC | 766. 6 Production: 1. H264-DEFLATE FPS 23. A lone gunfighter makes his way through the outer reaches, earning his keep. MKV is open source, and not an industry standard, so it doesn’t have support on many devices. Raquel is suspicious of the gentleman she meets at a bar. mkv BDRip 1080p AC3 Ita. Take a look how Star Wars again pushed the limits of visual effects, by using "virtual sets" in Mandalorian, with help of Unreal Engine. Ελληνικοί Υπότιτλοι κατέβασμα – Greek Subs site για Download. A lone gunfighter makes his way through the outer reaches, earning his keep as a bounty hunter. Mandalorian. 38Gb: February 25 2008: Armageddon(1998). Come and experience your torrent treasure chest right here. The Mandalorian - 2x04 - Chapter 12: The Siege (DSNP. The Mandalorian S01E02 MKV | 1280x720 | English | H265 @ 459 kbps | E-AC-3 @ 256 kbps | 28 min 41 s | 150 MiB Subtitles: English After the fall of the Galactic Empire, lawlessness has spread throughout the galaxy. to Fantasy Island S01E01 720p - 1080p WEB [MEGA] 11 Aug. mkv 11-Apr-2021 09:56 122829469 The Mandalorian S01 E04 480p. The Mandalorian is drawn to the Outer Rim in search of others of his kind. Scoob! stars Kiersey Clemons, Zac Efron, Mark Wahlberg and will hit theaters in […] Jan 08, 2021 · Index Parent Directory Mandalorian Mkv mp4 Parent Directory. Name Last modified Size. Index of /film2serial/serial/doble/Mandalorian/2/. mkv 13-Dec-2020 08:02 414425620 The. The Mandalorian S01E06 WEBRip | MKV | 1280x720 | English | H264 @ 4234 kbps | E-AC-3 @ 256 kbps | 18 min 47 s | 604 MiB Subtitles: Français, Deutsch, Suomi, Español, Polski, Italiano, Nederlands, Svenska, Dansk, English, Português After the fall of the Galactic Empire, lawlessness has spread throughout the galaxy. Add to Cart. 4GB 720p 4GB 1080p Action A spinoff of The Fate of the Furious, focusing on Johnson’s US Diplomatic Security Agent Luke Hobbs forming an unlikely alliance with Statham’s Deckard Shaw. The Flash 2014 S03E06 1080p HDTV x264 mp4 Сезон 1 БГ АУДИО Bad Moms (2016) Movie Download In 300MB DCs Legends of Tomorrow S02E05. Season 1 Episodes 1-5 I don't know if it will be updated or not Also if you go up 2 parent directories you will find more …. Index of /My30nama/SERIES/The Mandalorian S01. Transylvania. 译 名 曼达洛人 第二季/星球大战:曼达洛人/Star Wars: The Mandalorian. At the time of compiling this list, it features over 16 million torrents. 264 10Bit AAC] [REVXFRP2]. After the fall of the Galactic Empire, lawlessness has spread throughout the galaxy. 37Gb: February 2 2007: Ask. Mandalorian. Proudly created with Wix. 250 FPS (1536 SPF) Compression mode : Lossy Stream size : 174 MiB (3%) Title : English Language : English Service kind : Complete Main Default : Yes Forced : No Complexity index : 16 Number of dynamic objects : 15 Bed channel count : 1 channel Bed channel configuration : LFE. Take a look how Star Wars again pushed the limits of visual effects, by using "virtual sets" in Mandalorian, with help of Unreal Engine. 上映日期 2020-10-30(美国) IMDb评分 9. ' upcoming film The Suicide Squad is set to be one of the more raunchy comic book films in recent memory. 6 new Index Of The Gifted S2 results have been found in the last 90 days, which means that every 15, a new Index Of The Gifted S2 result is figured out. Index Of Mkv Maleficent Leading Edge Flying Club. - The Mandalorian S01E03 Chapter 3 2160p HDR Disney+ WEBRip DD+ Atmos 5. Site Index. mkv: 649M : Hotel. Disney Gallery Star Wars The Mandalorian S02E02 720p DSNP WEBRip DDP5. The Mandalorian teams up with an ex-soldier to protect a farming village from raiders. / The Mandalorian S01 E01 480p. 001: 900M : Gladiator. Merlin Season 1 (Completed) Mini MKV. Latest episodes of The Mandalorian in 720p & 1080p quality with direct links and multipal host mirrors. Last modified: Wed Mar 24 23:15:01 UTC 2021 Disclaimer The content of this website was created for TV4ed2k / MoTV ([email protected] mkv 2×7 Mr. 46 MB Vanilla Sky (2001) AE (1080p BluRay x265 HEVC 10bit AAC 5. If you are still having trouble finding your download after simplifying your search terms then we highly recommend using the alternative premium. The Mandalorian - HEVC/MKV 4K Ultra HD Trailer #2 (HEVC) Date Added: October 30, 2019 The Mummy: Tomb of the Dragon Emperor - H. Last modified. x264-PETRiFiED. 264 10Bit AAC] [REVXFRP2]. 6 Production: 1. Trailer Date Added: March 18, 2008 Dec 28, 2019 · Intitle index of deadpool mkv mp4 ?? size 26 01 2008 17:55:37. mkv: 649M : Hotel. The Mandalorian / Мандалорец. mkv 13-Dec-2020 08:02 414425620 The. 87Gb: April 24 2009: Apocalypse. mkv Mes Séries TV\The Mandalorian\The Mandalorian. ZiMuZu字幕组网站,www. $50AUD via evil one. Index of /film2serial/serial/doble/Mandalorian/2/. mkv 11-Apr-2021 09:56 229535595 The Mandalorian The Mandalorian S01 E03 480p. mkv: 131M : The. Index of the mandalorian season 1 download Disclaimer: S01E03 (720p, 1080p), S01E04 (720p, 480p) and S01E06 (1080p,480p) contain shortened links the. RGzsRutracker. Banned in the following countries: United Kingdom. Index of the mandalorian series 2019 720p hd brrip x265 mkv Enjoy The L. Index Of Films Mkv. mkv 11-Apr-2021 09:56 203016372 The Mandalorian. Here’s how to watch a movie on any VR headset, whether it’s a regular 2D movie, a 3D movie, or a full 360-degree VR production. by Digital Spy GB. It premiered with the service’s launch in November 2019 and is the first live-action series in the Star Wars franchise. Last modified. Mandalorian. Story Line:. Netflix officially renewed the series for a third part in 2018, which premiered on 19 July Police grab an image of the face of one of the robbers. 6 new Index Of The Gifted S2 results have been found in the last 90 days, which means that every 15, a new Index Of The Gifted S2 result is figured out. We follow the travails of a lone gunfighter in the outer reaches of the galaxy far from the authority of the New. You probably got that Oculus Go, Oculus Rift, or HTC Vive to play games, but VR can also offer a seriously immersive video-watching experience. Category: Mkv ConverterShow more. En España, la serie se preestrenó en Mediaset España el 24 de marzo de 2020. x264-PETRiFiED. 24 MB: 1: 0: 350: Boku no Hero Academia - 97 [720p]. A lone gunfighter makes his way through the outer reaches, earning his keep. The Flash 2014 S03E06 1080p HDTV x264 mp4 Сезон 1 БГ АУДИО Bad Moms (2016) Movie Download In 300MB DCs Legends of Tomorrow S02E05. M4ufree Movies | Watch The Mandalorian (2019 ) Full TV Series, After the stories of Jango and Boba Fett, another warrior emerges in the Star Wars universe. 233 votes, 38 comments. Mandalorian. 4GB 720p 4GB 1080p Action A spinoff of The Fate of the Furious, focusing on Johnson’s US Diplomatic Security Agent Luke Hobbs forming an unlikely alliance with Statham’s Deckard Shaw. mkv The Simpsons S01E08. Производство: США Год выпуска: 2020 Жанр: фантастика, боевик The. Magister Gaius, the learned court physician of King Uther Pendragon to whom he's assigned as humble page, teaches him medicine, coaches his magical self-study and warns of Uther's vicious. mkv: 509M : Gladiator. 38Gb: February 25 2008: Armageddon(1998). Series Cast. Doctor Who S01S09 1080p 720p Bluray x264. En España, la serie se preestrenó en Mediaset España el 24 de marzo de 2020. A Mandalorian bounty hunter tracks a target for a well-paying client. 1 x264-NOGRPIMDB information:Series information Title: Disney Gallery: Star Wars: The Mandalorian (2020) Genres: Documentary Description: A behind the scenes look at the making of the Disney+ series The Mandalorian. Subtitle Information Uploader Anonymous anonymous Language English Release name The. 11 Mar 25, 2021 · Index Of Swat Season 2 Mkv The Chi Season 2 480p Webrip All Episodes By 480mkv Posted on April 5, 2019 June 18, 2019 The Chi is an American drama series about life in a neighborhood. Your search query for Mandalorian Mkv will return more accurate download results if you exclude using keywords like: crack, serial, keygen, magnet, etc. Index of Film Essays. Download The Guilty 2021 720p HD 480p HD, x265, x264, Mp4 Download, Bluray, English, Dual Audio, Index Of, Avi, Mkv, Hollywood 4 weeks ago Old (2021): Full Movie Download 720p HD & Mkv. Watch Movies online. Disney Gallery Star Wars The Mandalorian S02E02 720p DSNP WEBRip DDP5. Pedro Pascal. Supports instant downloads: No. Index of /Media/Series/The Mandalorian/Season 1/. Mes Séries TV\The Mandalorian\The Mandalorian. x265-TrollUHD/. 上映日期 2020-10-30(美国) IMDb评分 9. Index of mandalorian s01. 94Gb: April 24 2009: Apollo. Mandalorian. Index Of Mkv Maleficent Leading Edge Flying Club. mkv 23-Dec-2020 17:34 697380447. Last modified. Come and experience your torrent treasure chest right here. submitted 1 year ago by Riqqert. RU Download Adobe Premiere Pro 2017 V11 DMG For Mac OS – Get Into PC birdlaul ul ##BEST## Can Soundtracks PBTHAL 24 96 VINYL RIPCan Soundtracks PBTHAL 24 96 VINYL RIP derrijanee. 2x02 Chapter 10: The Passenger. WonderFox Free HD Video Converter Factory is a highly acclaimed and trusted movie downloader that The Mandalorian - HEVC/MKV 4K Ultra HD Trailer #2 (HEVC) Date Added: October 30, 2019 The Mummy: Tomb of the Dragon Emperor - H. Download The Guilty 2021 720p HD 480p HD, x265, x264, Mp4 Download, Bluray, English, Dual Audio, Index Of, Avi, Mkv, Hollywood 4 weeks ago Old (2021): Full Movie Download 720p HD & Mkv. The Stand (2020) (Season 1) (BDRip-ION265, 720p-Gi6, 1080p-Gi6, 1080p-RARBG). Series Cast. 片 名 The Mandalorian Season 2. The Mandalorian - watch online: streaming, buy or rent Currently you are able to watch "The Mandalorian" streaming on Disney Plus. 265) and audio (AC3/Bird Box C) streams are usually extracted from the iTunes or Amazon Videoand then remuxed into a MKV container without sacrificing quality. Mandalorian. 250 FPS (1536 SPF) Compression mode : Lossy Stream size : 174 MiB (3%) Title : English Language : English Service kind : Complete Main Default : Yes Forced : No Complexity index : 16 Number of dynamic objects : 15 Bed channel count : 1 channel Bed channel configuration : LFE. x264-PETRiFiED. Index of /download/series/The Mandalorian. MKV 1 week ago 3. The Mandalorian Second 2º Season 1080p. HD • 1280×720 px / AVC | 2 ch / AAC | 766. mkv: 131M : The. 78 GB | mkv. 类 别 动作/科幻/冒险. A Mandalorian bounty hunter tracks a target for a well-paying, mysterious client. 46 MB Vanilla Sky (2001) AE (1080p BluRay x265 HEVC 10bit AAC 5. A lone gunfighter makes his way through the outer reaches, earning his keep as a bounty hunter. The Mandalorian S01E06 WEBRip | MKV | 1280x720 | English | H264 @ 4234 kbps | E-AC-3 @ 256 kbps | 18 min 47 s | 604 MiB Subtitles: Français, Deutsch, Suomi, Español, Polski, Italiano, Nederlands, Svenska, Dansk, English, Português After the fall of the Galactic Empire, lawlessness has spread throughout the galaxy. Everything you need to know about The Mandalorian season 3, including release date, cast, plot and more. It premiered with the service’s launch in November 2019 and is the first live-action series in the Star Wars franchise. Your search query for Mandalorian Mkv will return more accurate download results if you exclude using keywords like: crack, serial, keygen, magnet, etc. Μεγάλος ντόρος γίνεται τις τελευταίες ημέρες (αποκορύφωμα το κλείσιμο του gamato) για το αν θα. Carl Weathers. Series Cast. Site Index. Watch Movies online. Index of mandalorian s01. 37Gb: February 2 2007: Ask. Index of /My30nama/SERIES/The Mandalorian S01. Mandalorian. Index Of Mkv Maleficent Leading Edge Flying Club. M4ufree Movies | Watch The Mandalorian (2019 ) Full TV Series, After the stories of Jango and Boba Fett, another warrior emerges in the Star Wars universe. Ελληνικοί Υπότιτλοι κατέβασμα – Greek Subs site για Download. 6 new Index Of The Gifted S2 results have been found in the last 90 days, which means that every 15, a new Index Of The Gifted S2 result is figured out. 片 名 The Mandalorian Season 2. Index Parent Directory Mandalorian Mkv. Known issues: Certification is not retrieved from theMovieDb. mkv Index of : /: Name Size ; A. Trailer Date Added: March 18, 2008 Dec 28, 2019 · Intitle index of deadpool mkv mp4 ?? size 26 01 2008 17:55:37. After the stories of Jango and Boba Fett, another warrior emerges in the Star Wars universe. MKV is open source, and not an industry standard, so it doesn’t have support on many devices. 上映日期 2020-10-30(美国) IMDb评分 9. mkv Формат : Matroska (6%) Язык : English Service kind : Complete Main Default : Да Forced : Нет Complexity index : 16 Number. Supports instant downloads: No. $50AUD via evil one. Merlin is a young man, discovering and then learning to master his gift for magic.