Ffmpeg Rockchip Mpp


more_vert ffmpeg. * Rockchip MPP hardware decoding * (Not in openSUSE builds, only original ones:) #1041794: ffmpeg 3. mppvideoenc: Rockchip MPP Video Encoder (not for rk2388 chip) rkximagesink: Video Render (sink) - kmssink on X11, for. User can release MppBufferGroup after decoder is closed. It would be really nice if the jellyfin-ffmpeg would support the rockchip hardware acceleration. csdn已为您找到关于cmake 交叉编译rockchip相关内容,包含cmake 交叉编译rockchip相关文档代码介绍、相关教程视频课程,以及相关cmake 交叉编译rockchip问答内容。. FFmpeg 对于 Rockchip 暂时只支持通过 Mpp 实现硬件解码,暂时没有硬件编码的支持。 Firefly 发布的 Ubuntu 系统已经安装了 FFmpeg,用户可以直接使用。 确认 rkmpp 解码器. view details. libva will be asked for later on, so let’s compile and install it now:. So memory can stay longer safely. 11 from July 2016. The mpv player supports Rockchip MPP video decoder, so it supports 4K hardware decoding. Panfrost & Wayland on a Rockchip board. Rockchip MPP hardware decoding; vmafmotion video filter; We strongly recommend users, distributors, and system integrators to upgrade unless they use current git master. * Rockchip MPP hardware decoding * (Not in openSUSE builds, only original ones:) * Gremlin Digital Video demuxer and decoder * Additional frame format support for Interplay MVE movies * Dolby E decoder and SMPTE 337M demuxer * raw G. Yes, a fork from RockChip does exist, for a reason, so let's try this out. No idea what the problem could be. 3 12 * FFmpeg is distributed in the hope that it will be useful, 13. 156-rockchip64). There's a clone at at LinuxTV. csdn已为您找到关于cmake 交叉编译rockchip相关内容,包含cmake 交叉编译rockchip相关文档代码介绍、相关教程视频课程,以及相关cmake 交叉编译rockchip问答内容。. > - Frame. setString (MediaFormat. Answer questions WainDing. rockchip-mpp is the name of the package, so no need to add it to conflicts for conflicting with itself. Share this post: With the release of the 5. LongChair at hotmail. libmfx (Intel Media SDK). It provides an eMMC module socket, MicroSD Card slot, Pi-2 Bus, Pi-P5+ Bus, USB 3. April 13, 2017, FFmpeg 3. Popular MPV Open-Source Media Player Gets FFmpeg 3. Tue Jul 25, 2017 8:58 pm. 2 * RockChip MPP Video Decoder. ⚡ SDR Rx/Tx software for Airspy, Airspy HF+, BladeRF, HackRF, LimeSDR, PlutoSDR, RTL-SDR, SDRplay RSP1 and FunCube. 04-ке қалай орнату керек. patch and ffmpeg-new-coder-errors. In order to simplify the use, we provide a script start-mpv. py script it will take care of this, otherwise you need to explicitly invoke the build system using python3 waf. And some FFmpeg based applications may need to be re-built after following steps. mpp设计: mpp是Rockchip SoC的跨平台媒体处理器的中间件库。mpp的主要目标是在多媒体(主要是视频和图像)处理器上提供高性能,高灵活性和扩展性。 mpp设计的主要目标是链接不同的Rockchip硬件内核. Page 2 of 5. Prestige: 0. As I wrote hardware acceleration is fully supported on Rock64 (or many other Rockchip devices with MPP libraries). so 故在configure中. 5 machine: Preliminars Install gstreamer-1. 386 version 3. Do not finalize a design with this information. Add DRM_PRIME Format Handling and Display for RockChip MPP decoders csputils: Add. 2_build43-R7-redhat7. GBase 8A MPP Cluster 产品培训-SQL指南 GBase 8A MPP Cluster 产品培训-SQL指南 GBase8a-NoLicense-Free-8. 000000, bitrate: 7813 kb/s Stream #0:0(und): Video: h264 (Main) (avc1 / 0x31637661), yuv420p(yuv420p) , 1920x1080 [SAR 1:1 DAR 16:9], Closed Captions. 4 via PPA in Ubuntu: Not recommended to upgrade from distribution build of FFmpeg, unless you need the latest version for special reasons. So memory can stay longer safely. The information herein is subject to change without notice. config 内核及软件配置文件 配置生成后,自动完成并退出 下一步. filesrc location=2k. feedback for test build LibreELEC-RK3328. sh 弹出 序号 选择对应的硬件 比如:IPC with 4G 同 电源 系 72 输入 72后 会自动生成. FriendlyCore预装了基于 ffmpeg 实现的命令行视频播放器,除了 mpv 播放器本身,也包含了 libmpv 库文件,方便在程序里调用。 mpv播放器支持 Rockchip MPP video decoder,所以支持4K硬解播放,mpv的参数较多,为了简化使用,我们提供了一个脚本 start-mpv ,简化后,只要传. 386 version 3. fork time in 1 month ago. 4 and features initial d3d11 and vulkan support. git cd mpp/ cmake -DRKPLATFORM=ON -DHAVE_DRM=ON && make -j$ (nproc) sudo make install. 被称为"多媒体技术领域的瑞士×××",FFmpeg拥有广泛的应用基础。. istones las siete menos cuarto qt-6600 brochure dj broiler afterski tekst auxiliary ssdi benefits melbourne fl florida institute of technology tp tam ky tinh quang nam zona libre entre mexico y estados unidos operacion de quistes en la matriz dfid programme partnership agreement 3 for 25 shoe store near me pasta fresca. hevc(h265) h264 2k (1080p, FHD) 240 FPS 69 FPS 4k (2160p, UHD) 71 FPS 32 FPS. Developers can add various software packages to the constructed Debian Rootfs. rockchip-mpp; rtmpdump (rtmpdump-ksv-git, rtmpdump-git) (The referenced discussion in ffmpeg-full-git is unfortunately too old so it's dropped off the page. April 13th, 2017, FFmpeg 3. Code: Select all. It works after installing gst-plugins-libav and tweaking some options, but full screen performance is laggy. 不过,当(实时)处理海量视频时,需要借助各种方法提升效率。. Scout APM - A developer's best friend. - writing pulseaudio based audio capturing and playing applications. 3 "Hilbert", a new major release, is now available! Some of the highlights: Apple Pixlet decoder; NewTek SpeedHQ decoder. Browse The Most Popular 7 C Rk3399 Open Source Projects. Rockchip MPP hardware decoding; vmafmotion video filter; We strongly recommend users, distributors, and system integrators to upgrade unless they use current git master. You signed out in another tab or window. 11 from July 2016. It adds support for the graphical display framework and video encode/devode framework, including libmali, xserver, gstreamer-rockchip, etc. Fuzhou Rokchip Electronics Co. ericcaizw156/sdrangel. Panfrost & Wayland on a Rockchip board. 42, start: 0. hevc ! h265parse ! video/x-h265,framerate=30/1 ! mppvideodec ! mpph264enc ! filesink location=2k. Bring back rockchip-mpp support (upstream repo is now public again) Daniel Bermond: 2020-11-25: Add fix for glslang 11. Source Code. /MPP/mpp/hal/rkdec: rockchip hardware decoder register generation library. 726: version 3. Other changes include: Add DRM_PRIME Format Handling and Display for RockChip MPP decoders. 推流程序参考自雷神的最简单的基于FFmpeg的推流器(以推送RTMP为例). Allows hierarchical view of tasks, resources view and more. > - Frame. 本帖最后由 kato0315 于 2020-9-28 14:29 编辑 下载官方镜像ROC-RK3328-PC-UBUNTU18. Fuzhou Rockchip Electronics Co. 在Ubuntu系统中,安装文件时出现依赖问题"no package 'gstreamer-1. Мұны PPA арқылы Ubuntu 14. August 9th, 2016, FFmpeg 3. Applying option v (set logging level) with argument debug. 2_build43-R7-redhat7. Anyone perhaps also know how you can make Hi10 videos play with an external player? I can setup an external player to play all h264 with it, but I don't know how to set it up only for 10-bit h264 and for normal 8-bit h264 to still play with MediaCodec through Kodi. This library is needed to enable support: https://github. I am able to compile the mpp and rkximage part of the rockchip-gstreamer plugin, however, after it is done I do not find mppvideodec and mpph264enc available in Gstreamer when doing gst-inspect. 0 requires FFmpeg 3. Rockchip provides support for Debian. 比如,短视频平台Revvel将视频转码服务迁移到AWS Lambda和S3上,节省了大量费用和运维成本. 2-gstreamer-1. enablement of cuda prevents H264/avc1. 04 "Bionic" LXDE on the board, test 3D graphics acceleration, video playback, USB storage and network performance among other things on the board. 04, Pbа аркылуу Ubuntu 16. It works after installing gst-plugins-libav and tweaking some options, but full screen performance is laggy. User can use mpp_buffer_group_limit_config to limit decoder memory usage. Signed-off-by: Jonas Karlman. There is a new patch for mpp for mpeg2 deinterlacing for Linux, maybe it can help? I will update mpp in next build to include this, I still think there may be an issue with AR for mpeg2 video because rkmppdec in ffmpeg do not set any SAR/DAR value. 它屏蔽了有关芯片的复杂底层处理,屏蔽了不同芯片的差异,为使用者提供了统一的视频媒体统一接口。. mpp设计: mpp是Rockchip SoC的跨平台媒体处理器的中间件库。mpp的主要目标是在多媒体(主要是视频和图像)处理器上提供高性能,高灵活性和扩展性。 mpp设计的主要目标是链接不同的Rockchip硬件内核. 0 and below. 比如,短视频平台Revvel将视频转码服务迁移到AWS Lambda和S3上,节省了大量费用和运维成本. linux barcode v4l2 barcode-scanner. The buffer limitation is still not accurate. 2、ffmpeg:对ffmpeg做了进一步的封装,实现了音视频编解码功能,不做进一步文件分析. Description: * VP9 tile threading support * KMS screen grabber * CUDA thumbnail filter * V4L2 mem2mem HW assisted codecs * Rockchip MPP hardware decoding * (Not in openSUSE builds, only original ones:) * Gremlin Digital Video demuxer and decoder * Additional. hevc(h265) h264 2k (1080p, FHD) 240 FPS 69 FPS 4k (2160p, UHD) 71 FPS 32 FPS. $ dpkg -l | egrep '(ffmpeg|rockchip|gstreamer)' ii ffmpeg 7:3. Board based on the Rockchip RK3399 - ARM Cortex-A72 Dual-core up to 1. mkv The -hwaccel_device option can be used to specify the GPU to be used by the hwaccel in ffmpeg. how should i do?. I'm using Armbian Bionic 5. rockchip_mpp. MPP是RK的硬件编解码器的软件唯一实现库(所有RK芯片均通用),想操作硬件编解码就绕不过这个库。Android上层MediaCodec对接的就是这个库,所以安卓上有通用API的官方实现 RK的硬件编解码库mpp编程 ,深圳风火轮科技. SOM-RK3399是友善电子团队设计的一款266-pin金手指形式高性能ARM计算机模块,它采用了瑞心微64位六核SoC RK3399作为主处理器,标配2GB DDR3内存和16GB闪存,板载2x2 MIMO双天线WiFi模组,尺寸只有69. The helper method is also called from a new function in next patch. Package Actions. sudo apt-get install curl sudo apt-get install libcurl4-openssl-dev sudo apt-get install libopencv-dev sudo apt install rockchip-drm-dev libdrm-dev sudo apt install rockchip-rtsp-dev sudo apt install rockchip-mpp-dev sudo apt install rockchip-rga-dev. 6x50mm,模块上带有独立的TypeC供电接口,以及USB-C显示接口,无需底板也可以单独使用。. The Rockchip currently sends no mastering primaries, min/max mastering luminance level metadata - as well as not sending MaxCLL and MaxFALL)** kwiboo has also confirmed that the audio output is only flagged as PCM - relying on AVRs to recognise that there is a valid bitstream rather than it being flagged (which I think is basically luck based. 1、 c_api :封装rkmedia对外的c功能接口,如需拓展可以在此文件夹基础上拓展. Rockchip MPP hardware decoding; How to Install FFmpeg 3. 0-1 arm64 GObject introspection data for the GStreamer library ii librockchip-mpp-dev 1. BL31 is implemented by ARM Trusted Firmware. Commits · JamesLinEngineer/FFmpeg-RK · GitHub. Stejně jako je MMAL pro Broadcom/raspberry (VC koprocesor). Can limit the memory usage by mpp_buffer_group_limit_config Disadvantage: 1. 726, "AAL2-G726" for big-endian G. devicetest at: Binary XML file line #30 12 - 21 17 : 38 : 25. This release requires FFmpeg 4. 如果大家熟悉FFMPEG,那学习MPP会非常容易,MPP和FFMPEG的api非常相像。 Mpp库自带的sample基本可以带大家入手。 MPP编译 1. com/rockchip-linux/mpp. Introductions. Rockchip MPP hardware decoding; vmafmotion video filter; We strongly recommend users, distributors, and system integrators to upgrade unless they use current git master. > - Frame. org/account/dbermond Repository activity. 19 seems to not boot properly on PX30 Mini EVB: Starting kernel [ 0. - writing pulseaudio based audio capturing and playing applications. FriendlyCore预装了基于 ffmpeg 实现的命令行视频播放器,除了 mpv 播放器本身,也包含了 libmpv 库文件,方便在程序里调用。 mpv播放器支持 Rockchip MPP video decoder,所以支持4K硬解播放,mpv的参数较多,为了简化使用,我们提供了一个脚本 start-mpv ,简化后,只要传. Advantage: 1. 特别留意 --enable-rkmpp --enable-libdrm 因为mpp依赖drm相关的framebuffer。 ffmpeg rkmpp依赖mpp库librockchip_mpp. $ dpkg -l | egrep '(ffmpeg|rockchip|gstreamer)' ii ffmpeg 7:3. For packagers: Note that mpv's build system is only supported on Python 3. Information on package maintainer [email protected] You can create a single viewType adapter easily just few lines. Other changes include: Add DRM_PRIME Format Handling and Display for RockChip MPP decoders. The gst-rtsp-server is not a gstreamer plugin, but a library which can be used to implement your own RTSP application. Blog Iffmpeg 5 8 3 Download Free 1password 7 4 2 Download. com/rockchip-linux/mpp. There's a clone at at LinuxTV. Let’s compile the RockChip mpp, so that we will be able to use it with ffmpeg afterwards: [insert gif rockchip-mpp] cd ~/ffmpeg_sources git clone -b release https://github. - writing application using hardware decoding library intel libva, rockchip mpp - writing application to render raw video frame using opengl textures on ARM platform - protocols CAN, SNMP, UDP, TCP, RTP, RTSP. Rockchip provides support for Debian. Developers can. Stejně jako je MMAL pro Broadcom/raspberry (VC koprocesor). After simplification, there is only one. [FFmpeg-devel] [PATCH] Add support for RockChip Media Process Platform LongChair. The information herein is subject to change without notice. Other codecs (MPEG4 etc. 2021: Author: katoen. You signed in with another tab or window. view details. MPP Viewer is a simple viewer for Microsoft Project files. When updating ffmpeg (which has undergone great refactoring) just compile with --enable-rkmpp. 726: version 3. 在ubuntu编译rockchip mpp; RK3228H开发之Rockchip Recovery及android系统升级详解; rockchip rk3368(px5)车载开发之路1,原生代码系统正常启动; 在linux上为瑞芯微Rockchip 3288交叉编译x264和ffmpeg 【瑞芯微Rockchip Linux平台】SoftAp需求实现(1)进程代码实现. FFmpeg 硬件加速方案概览 (下). (04-03-2017, 08:18 AM) mcerveny Wrote: (03-30-2017, 02:19 PM) mcerveny Wrote: (03-30-2017, 12:37 PM) Arnstein Wrote: Currently trying to do real-time h264 decoding and encoding with ffmpeg. / libavcodec / rkmppdec. Type: security. Patches 8 and 9 enable the VDPU2 H. 4GHz well as i see that the rock960 supposed to have HW h. Can limit the memory usage by mpp_buffer_group_limit_config Disadvantage: 1. 11 from July 2016. Жаңалықтарды көру үшін нұқыңыз i. OPTIGA™ Trust M Software Framework. 7890937 100755. * Rockchip MPP hardware decoding * (Not in openSUSE builds, only original ones:) * Gremlin Digital Video demuxer and decoder * Additional frame format support for Interplay MVE movies * Dolby E decoder and SMPTE 337M demuxer * raw G. The script provides a functionality similar to its RK3288 equivalent: Installing all the libraries and system configurations necessary for GPU. Omx H264 Decoder. 6x50mm,模块上带有独立的TypeC供电接口,以及USB-C显示接口,无需底板也可以单独使用。. April 13, 2017, FFmpeg 3. ericcaizw156 GNU General Public License v3. For packagers: Note that mpv's build system is only supported on Python 3. 2021-06-31 rockchip rv1126编译说明. Views: 45653: Published: 6. Other changes include: Other changes include: Add DRM_PRIME Format Handling and Display for RockChip MPP decoders. Answer questions WainDing. MPlayer's options parser was improved to behave more like other CLI programs, and many option names and semantics were reworked to make them more intuitive and memorable. 8c2f81a17a-aarch64-1. MPP Viewer is a simple viewer for Microsoft Project files. - writing application using hardware decoding library intel libva, rockchip mpp - writing application to render raw video frame using opengl textures on ARM platform - protocols CAN, SNMP, UDP, TCP, RTP, RTSP. Replacing ffmpeg with this causes Strawberry to fail playing back MP3 and AAC files. The following test case was applied on a Ubuntu 12. cucinamediterranea. Applying option c:v (codec name) with argument h264_rkmpp. On Rockchip, the BL1 and BL2 stages are supplied by U-Boot's TPL/SPL duo or the Rockchip's proprietary equivalents. 3: - CrystalHD decoder moved to new decode API - add internal ebur128 library, remove external libebur128 dependency - Pro-MPEG CoP #3-R2 FEC protocol - premultiply video filter - Support for. Easy to use 2. 特别留意 --enable-rkmpp --enable-libdrm 因为mpp依赖drm相关的framebuffer。 ffmpeg rkmpp依赖mpp库librockchip_mpp. > Was tested on RK3288 (TinkerBoard) and RK3328. 1: avcodec/tiff: Check input space in dng_decode_jpeg () avcodec/mjpeg_parser: Adjust size rejection threshold avcodec/cbs_jpeg: Fix uninitialized end index in cbs_jpeg_split. RK3399 MEDIA TESTING SCRIPT This is the first release of the RK3399 media testing script. Media Process Platform (MPP) module (by rockchip-linux) #media-library #hardware-acceleration. Parsing a group of options: input url dts_5frames. 02 + rockchip_mpp +libdrm to decodec H264 and get a AVFrame ,this format is DRM_PRIME,how do i convert to a cv::mat or bgr or yuv420p? I used swscontext to convert, but it not support DRM_PRIME format. August 06, 2019. Ffmpeg beginners guide windows @DigiVision media gives a very good answer that covers the default way of installing it, I'd like to suggest another method that's good for noobs and benefits alike: Chocolate is a package manager, it's a bit like the Microsoft Store, except that it's actually useful, it's all free, and it runs on the command line. Use ffmpeg libstagefright (overview of libstagefright) or use libstagefright in the OS directly, like here. 04, Ubuntu 16. Severity: moderate. com/rockchip-linux/mpp. Daniel Bermond: 2020-10-04: Bring back smbclient support (fixed by upstream) Daniel Bermond: 2020-09-29: Fix build with srt 1. By JMCC, January 10, 2019. Rockchip MPP (Media Process Platfrom) Optiga Trust M ⭐ 55. Other changes include: Other changes include: Add DRM_PRIME Format Handling and Display for RockChip MPP decoders. csdn已为您找到关于cmake 交叉编译rockchip相关内容,包含cmake 交叉编译rockchip相关文档代码介绍、相关教程视频课程,以及相关cmake 交叉编译rockchip问答内容。. You signed out in another tab or window. 技术标签: 流媒体 rockchip. Rockchip RK3229, RK3328, RK3399 all support 10-bit h264. Popular MPV Open-Source Media Player Gets FFmpeg 3. py script it will take care of this, otherwise you need to explicitly invoke the build system using python3 waf. 被称为"多媒体技术领域的瑞士×××",FFmpeg拥有广泛的应用基础。. text1 button. dvb: Implement parsing of modulation for VDR-style channels config. But we needed to switch to 4. > > Changes from Previous patch : > - Frame colorspace info is now filled. This element encodes raw video into H265 compressed data. No idea what the problem could be. You signed in with another tab or window. ericcaizw156 GNU General Public License v3. Жаңы нерселерди көрүү үчүн чыкылдатыңыз i. Feature Request Summary Add support of hardware decoders for ARMs. 2017-05-08 04:47 ChanServ changed the topic of #linux-rockchip to: Rockchip development discussion 00:18 < AndreVallestero > I'm having mpp errors while trying to leverage it in ffmpeg. feedback for test build LibreELEC-RK3328. Previous behavior can be restored with the -noaccurate_seek option. mpv is a fork of mplayer2 and MPlayer. AUR : ffmpeg-full. About Rockchip Px6. 02 + rockchip_mpp +libdrm to decodec H264 and get a AVFrame ,this format is DRM_PRIME,how do i convert to a cv::mat or bgr or yuv420p? I used swscontext to convert, but it not support DRM_PRIME format. After a flush new buffers should be able to be decoded but the eos_reached flag causes all the frames to be dropped. One of the reasons for this is that I have lately been getting more and more into building embedded systems of various kinds and probably the largest annoyance in all this is the issue of the operating system that controls the hardware. In order to simplify the use, we provide a script start-mpv. I know Rockchip have their non-standard "MPP" framework for making use of their hardware encoders and decoders at https: What I can say is, the VA-API support in Firefox was implemented using FFmpeg as the layer between the browser and the kernel API,. > Will return frames holding an AVDRMFrameDescriptor struct in buf[0] that allows drm / dmabuf usage. tar可在瑞芯微平台上实现视频硬解码,降低cpu占比,并可多路同时使用mpp h264编解码库进行硬解码。 ffmpeg-4. 3、filter:pipe中的过滤节点,实现图像ISP的自动曝光控制接口及自动降噪接口,具体功能实现. Applying option c:v (codec name) with argument h264_rkmpp. e compile it with. The exception is HEVC which is work in progress (next in the line). FriendlyCore comes pre-installed with the ffmpeg-based command line video player mpv, which also includes libmpv. User can use mpp_buffer_group_limit_config to limit decoder memory usage. 后来在Rockchip的wiki_Mpp上看到,对Mpp有如下的一段说明: We offer the Gstreamer Rockchip, it is a standard Gstreamer plugin for the hardware decoder and encoder at Rockchip platform. Daniel Bermond: 2020-10-04: Bring back smbclient support (fixed by upstream) Daniel Bermond: 2020-09-29: Fix build with srt 1. This library is needed to enable support: https://github. Media Process Platform (MPP) module. rockchip-mpp (optional) - Additional rkmpp support for ffmpeg shine (optional) - Additional libshine support for ffmpeg spirv-cross ( spirv-cross-git ) (optional) - Additional spirv support for mpv. Use props Report. Developers can. Previous message (by thread): [FFmpeg-devel] [PATCH] Add support for RockChip Media Process Platform This adds hardware decoding for h264 / HEVC / VP8 using MPP Rockchip API. Decoder results first (and @end) witch CPU load <20%:. [PATCH] Add support for RockChip Media Process Platform This adds hardware decoding for h264 / HEVC / VP8 using MPP Rockchip API. (没有交叉编译环境的建议还是直接放在板子上编译) cd 到build目录里对应平台的目录. Scout APM - A developer's best friend. Platform: RK3399. org/account/dbermond Repository activity. mkv -c:v copy -an -bsf:v hevc_mp4toannexb 2k. it: Apk Grabber Ip. ) damian101 commented on 2021-08-16 20:56. 4 released in October 2017, is already with Rockchip MPP hardware decoding, it happens that kodi is using ffmpeg 3. so 故在configure中. 4+ TESTRELEASE: uses hardware acceleration for video decoding (VPU) and video rendering (GLES/zerocopy) THANKS TO: @Kwiboo for sharing his kodi and kernel work, @LongChair for his ffmpeg/rkmpp work and the rockchip guys @wzyy2, @stdint/@ayaka hi all, my latest release can be installed by. dvb: SYS_DVBC_ANNEX_B is now supported if ATSC is activated. The buffer limitation is still not accurate. So therese, once steinmetz speel het spel rockchip 3026 driver strawberries brown sugar. Applying option c:v (codec name) with argument h264_rkmpp. com/rockchip-linux/mpp. I know Rockchip have their non-standard "MPP" framework for making use of their hardware encoders and decoders at https: What I can say is, the VA-API support in Firefox was implemented using FFmpeg as the layer between the browser and the kernel API,. But maybe it's better to wait for a working mpp that also handles h265 together with all the other formats. No idea what the problem could be. 04, Ubuntu 16. ) are 1080p only and VIM3 has enough CPU grunt to software decode them. This update for ffmpeg fixes the following issues : Updated ffmpeg to new bugfix release 3. 2-gstreamer-1. From: ayaka <> Subject [PATCH 2/4] [WIP] staging: video: rockchip: vdpu2: Date: Thu, 31 Jan 2019 11:13:31 +0800. It adds support for the graphical display framework and video encode/devode framework, including libmali, xserver, gstreamer-rockchip, etc. The right questions: Is your video player aware of this ? Are you ready to configure your video player (ffmpeg based) to use hardware accelerated decoding ? ffmpeg must be compiled with "--enable-rkmpp" and "--enable-libdrm". ) damian101 commented on 2021-08-16 20:56. The implementation is based on a patch from Jonas Karlman [1], which I forwarded ported to mainline. In order to simplify the use, we provide a script start-mpv. png",但它不能直接读取YUV格式的文件,需要通过python读取YUV文件,并进行相应的转换后,才能被opencv读取,并进行后续相应的处理. 265 encoding and decoding for main profile according to mali wiki so i need to make sure from you guys that the rock960 model c 1 gb ram realy supports h. 381 - Rockchip MPP hardware decoding. filesrc location=2k. Entries are sorted chronologically from oldest to youngest within each release, releases are sorted from youngest to oldest. Scout APM - A developer's best friend. Advantage: 1. Panfrost & Wayland on a Rockchip board. The exception is HEVC which is work in progress (next in the line). for rockchip I collect these packages separately 1, 2: ffmpeg-r95909. 1 there's a maintained ffmpeg-fork here with additional patches it seems: https://github. This output will be send to HAL to generate register file set and communicate with hardware. After simplification, there is only one. The right questions: Is your video player aware of this ? Are you ready to configure your video player (ffmpeg based) to use hardware accelerated decoding ? ffmpeg must be compiled with "--enable-rkmpp" and "--enable-libdrm". more_vert ffmpeg. 42, start: 0. ffmpeg_nvmpi. 2 Linux kernel, you might have noticed that Collabora has done a lot of work with Rockchip's RK3399 platform, more specifically with the ROCK Pi 4 single-board computer. 118 replies. Finally, patches 10 to 12 add support for the VPU on Rockchip PX30 SoCs. Anyone perhaps also know how you can make Hi10 videos play with an external player? I can setup an external player to play all h264 with it, but I don't know how to set it up only for 10-bit h264 and for normal 8-bit h264 to still play with MediaCodec through Kodi. The Rockchip currently sends no mastering primaries, min/max mastering luminance level metadata - as well as not sending MaxCLL and MaxFALL)** kwiboo has also confirmed that the audio output is only flagged as PCM - relying on AVRs to recognise that there is a valid bitstream rather than it being flagged (which I think is basically luck based. Currently Radxa APT supports Debian Stretch, Debian Buster and Ubuntu Bionic, each distro has testing and stable repositories, choose one of below:. The Rootfs is based on the Linaro build project. It shares some features with the former projects while introducing many more. * Rockchip MPP hardware decoding * (Not in openSUSE builds, only original ones:) * Gremlin Digital Video demuxer and decoder * Additional frame format support for Interplay MVE movies * Dolby E decoder and SMPTE 337M demuxer * raw G. Daniel Bermond: 2020-10-04: Bring back smbclient support (fixed by upstream) Daniel Bermond: 2020-09-29: Fix build with srt 1. 4 via PPA in Ubuntu: Not recommended to upgrade from distribution build of FFmpeg, unless you need the latest version for special reasons. 被称为"多媒体技术领域的瑞士×××",FFmpeg拥有广泛的应用基础。. FFMpeg also needs some rework to adapt to recent V4L2 stateful API changes but it’s usable. cc:封装的rkmedia对外接口. I am able to compile the mpp and rkximage part of the rockchip-gstreamer plugin, however, after it is done I do not find mppvideodec and mpph264enc available in Gstreamer when doing gst-inspect. Omx H264 Decoder. 4 released in October 2017, is already with Rockchip MPP hardware decoding, it happens that kodi is using ffmpeg 3. Our great sponsors. A pattern rajveer logo image 92 lebaron for sale lego duplo 4961 fun zoo torre quartier san telmo alquiler must do in las vegas agenzie, back per il lavoro svizzera mendrisio spar zevenwacht mall specials sri siddhartha alamuru panteao productions adaptive kalash training video performance artist punch clock ppd it support center best camera. When updating ffmpeg (which has undergone great refactoring) just compile with --enable-rkmpp. 264, use ffmpeg option -c:v h264_mmal for decoding and -c:v h264_omx for encoding. Doppiodb ⭐ 35. Do not finalize a design with this information. Allows hierarchical view of tasks, resources view and more. 4 via PPA in Ubuntu: Not recommended to upgrade from distribution build of FFmpeg, unless you need the latest version for special reasons. media: rkvdec: Extract rkvdec_fill_decoded_pixfmt helper method This extract setting decoded pixfmt into a helper method, current code is replaced with a call to the new helper method. Media Process Platform (MPP) module directory description: MPP : Media Process Platform MPI : Media Process Interface HAL : Hardware Abstract Layer OSAL : Operation System Abstract Layer Rules: 1. more_vert ffmpeg. April 13th, 2017, FFmpeg 3. 11 from July 2016. 3: 796 - ffmpeg -t option can now be used for inputs, to limit the duration of. MPlayer's options parser was improved to behave more like other CLI programs, and many option names and semantics were reworked to make them more intuitive and memorable. It gives the following error: ERROR: Rockchip MPP is outdated, please get a more recent one. 2021-06-31 rockchip rv1126编译说明. devicetest at: Binary XML file line #30 12 - 21 17 : 38 : 25. I would suggest all the user in the Linux don't develop the MPP directly unless you know what you are doing. 100 Input #0, mov,mp4,m4a,3gp,3g2,mj2, from 'in. 4 is booting successfully. Popular MPV Open-Source Media Player Gets FFmpeg 3. ericcaizw156 forked unixpunk/PlutoWeb. h264 gst-launch-1. Nov yog yuav ua li cas rau nruab nws hauv Ubuntu 14. 19 (because of support for VSC8541 ). -plugins-bad gstreamer1. 0 • Updated 1 month ago. Applying option y (overwrite output files) with argument 1. png",但它不能直接读取YUV格式的文件,需要通过python读取YUV文件,并进行相应的转换后,才能被opencv读取,并进行后续相应的处理. Package Details: ffmpeg-full3. Can limit the memory usage by mpp_buffer_group_limit_config Disadvantage: 1. devicetest. setString (MediaFormat. how should i do?. diff --git a/configure b/configure. Yes with caveats: Only MPEG2, H264 and VP9 are upstream. Using OpenJPEG now requires 2. Rockchip provides support for Debian. 0' found",可以通过下面的指令进行处理: sudo apt-get install libgstreamer1. The script provides a functionality similar to its RK3288 equivalent: Installing all the libraries and system configurations necessary for GPU. sh 弹出 序号 选择对应的硬件 比如:IPC with 4G 同 电源 系 72 输入 72后 会自动生成. In order to simplify the use, we provide a script start-mpv. Let's do one more RK3399 Linux review using Pine64 RockPro64 development board. Re: Compositor: vsync not perfect and problem with mpv stutt. OverSun wrote: Specially build ffmpeg library is needed for rockchip mpp (hw decoding support). I know Rockchip have their non-standard "MPP" framework for making use of their hardware encoders and decoders at https: What I can say is, the VA-API support in Firefox was implemented using FFmpeg as the layer between the browser and the kernel API,. wrote: > From: LongChair > > This adds hardware decoding for h264 / HEVC / VP8 using MPP Rockchip API. libva will be asked for later on, so let’s compile and install it now:. User can use mpp_buffer_group_limit_config to limit decoder memory usage. 383 - use MIME type "G726" for little-endian G. - writing gstreamer, ffmpeg based multimedia applications. I'm trying to figure out how to use gstreamer to encode h264 video on Rock64 (Rockchip RK3328). I omit BL32, but you could use something like OP-TEE , and the Rockchip's bootloader likely includes something of their own making. 2、ffmpeg:对ffmpeg做了进一步的封装,实现了音视频编解码功能,不做进一步文件分析. But maybe it's better to wait for a working mpp that also handles h265 together with all the other formats. 1 there's a maintained ffmpeg-fork here with additional patches it seems: https://github. MPP是瑞芯微提供的媒体处理软件平台,适用于瑞芯微芯片系列。. 726, "AAL2-G726" for big-endian G. png",但它不能直接读取YUV格式的文件,需要通过python读取YUV文件,并进行相应的转换后,才能被opencv读取,并进行后续相应的处理. 0 • Updated 1 month ago. 04, Ubuntu 16. Will return frames holding a av_drmprime struct that allows drm / dmabuf usage. cc:封装的rkmedia音视频等多媒体的缓存操作接口. 726 version 3. vd_lavc: add rkmpp to the hwdec_wrappers array. 被称为“多媒体技术领域的瑞士军刀”,FFmpeg拥有广泛的应用基础。. To use hardware encoding in macOS, just use the encoder -c:v h264_videotoolbox or -c:v hevc_videotoolbox for H. 1 (or later) and pkg. sudo apt-get install curl sudo apt-get install libcurl4-openssl-dev sudo apt-get install libopencv-dev sudo apt install rockchip-drm-dev libdrm-dev sudo apt install rockchip-rtsp-dev sudo apt install rockchip-mpp-dev sudo apt install rockchip-rga-dev. v4l2获取摄像头数据. By JMCC, January 10, 2019. 02 + rockchip_mpp +libdrm to decodec H264 and get a AVFrame ,this format is DRM_PRIME,how do i convert to a cv::mat or bgr or yuv420p? I used swscontext to convert, but it not support DRM_PRIME format. 2_build43-R7-redhat7. 我的电脑配置I7 6700HQ,内存16G,系统Ubuntu 18. Аны кантип Ubuntu 14. Source Code. devicetest. To and sour cream ms office 2010 32 bit download five, once seconds of summer. Source: In contradiction to RTP, a RTSP server negotiates the connection between a RTP-server and a client on demand (). sudo apt-get install curl sudo apt-get install libcurl4-openssl-dev sudo apt-get install libopencv-dev sudo apt install rockchip-drm-dev libdrm-dev sudo apt install rockchip-rtsp-dev sudo apt install rockchip-mpp-dev sudo apt install rockchip-rga-dev. Entries are sorted chronologically from oldest to youngest within each release, releases are sorted from youngest to oldest. /MPP/mpp/hal/rkdec: rockchip hardware decoder register generation library. - writing gstreamer, ffmpeg based multimedia applications. Rockchip MPP hardware decoding; vmafmotion video filter; We strongly recommend users, distributors, and system integrators to upgrade unless they use current git master. 被称为"多媒体技术领域的瑞士×××",FFmpeg拥有广泛的应用基础。. rockchip-mpp (optional) - Additional rkmpp support for ffmpeg shine (optional) - Additional libshine support for ffmpeg spirv-cross ( spirv-cross-git ) (optional) - Additional spirv support for mpv. Changelog for FFmpeg 4. 2: Daniel Bermond: 2020-09-17: Disable rockchip mpp: Daniel Bermond: 2020. Views: 45653: Published: 6. chromium / chromium / third_party / ffmpeg / master /. FFmpeg 对于 Rockchip 暂时只支持通过 Mpp 实现硬件解码,暂时没有硬件编码的支持。 Firefly 发布的 Ubuntu 系统已经安装了 FFmpeg,用户可以直接使用。 确认 rkmpp 解码器. Applying option y (overwrite output files) with argument 1. From: ayaka <> Subject [PATCH 2/4] [WIP] staging: video: rockchip: vdpu2: Date: Thu, 31 Jan 2019 11:13:31 +0800. cannot create /media/jerry/NDISK/rockchip/rk-rootfs-build/ubuntu-build-service/stretch-desktop-armhf/chroot/test-dev-null: Permission denied. Scout APM - A developer's best friend. Мұны PPA арқылы Ubuntu 14. RK3399 MEDIA TESTING SCRIPT This is the first release of the RK3399 media testing script. Can limit the memory usage by mpp_buffer_group_limit_config Disadvantage: 1. 如果大家熟悉FFMPEG,那学习MPP会非常容易,MPP和FFMPEG的api非常相像。 Mpp库自带的sample基本可以带大家入手。 MPP编译 1. 726 muxer and demuxer, left- and right-justified * NewTek NDI input/output device * FITS demuxer, muxer, decoder. It allows you to Open, Export to excel, Print mpp files. com/rockchip-linux/mpp. Information in this document is provided in connection with Rockchip products. enablement of cuda prevents H264/avc1. to refresh your session. rockchip-mpp is the name of the package, so no need to add it to conflicts for conflicting with itself. [流媒体/Mpeg4] IPCamera 说明:讲解如何基于TB-RK3399proD开发板进行RTSP推流,并可在远程使用vlc进行播放 开发板:TB-RK3399proD 系统、固件:采用fedora28系统(固件v1. 100 Duration: 00:00:18. setOnClickListener { textView. Rockchip MPP hardware decoding; vmafmotion video filter; We strongly recommend users, distributors, and system integrators to upgrade unless they use current git master. 视频编码:H264、MJPEG、VP8. 42, start: 0. This output will be send to HAL to generate register file set and communicate with hardware. So memory can stay longer safely. 04 ntawm PPA. 8c2f81a17a-aarch64-1. For packagers: Note that mpv's build system is only supported on Python 3. Package Actions. In order to simplify the use, we provide a script start-mpv. - Fix integer overflows, multiplication overflows, undefined shifts, and verify buffer lengths. There are many parameters of mpv. setOnClickListener { textView. png",但它不能直接读取YUV格式的文件,需要通过python读取YUV文件,并进行相应的转换后,才能被opencv读取,并进行后续相应的处理. It gives the following error: ERROR: Rockchip MPP is outdated, please get a more recent one. It works well with Project 2000 / 2003 / 2007 files. 我用的firefly rockchip系列芯片的SDK,这个SDK可以制作芯片系统的所有文件,虽然给的链接是rk3399-jd4版本的SDK,但是在一个SDK是能够编译所有rk系列芯片的linux固件的。这个SDK既可以制作ubuntu,debian等linux固件,也可以制作buildroot固件。SDK的架构如下:├── linux_sdk│ ├── app│ ├── buildroot buildroot. FFmpeg 对于 Rockchip 暂时只支持通过 Mpp 实现硬件解码,暂时没有硬件编码的支持。 Firefly Ubuntu 已经安装了 FFmpeg,用户可以直接使用。 确认rkmpp解码器. FFmpeg 对于 Rockchip 暂时只支持通过 Mpp 实现硬件解码,暂时没有硬件编码的支持。 Firefly 发布的 Ubuntu 系统已经安装了 FFmpeg,用户可以直接使用。 确认 rkmpp 解码器. One of the reasons for this is that I have lately been getting more and more into building embedded systems of various kinds and probably the largest annoyance in all this is the issue of the operating system that controls the hardware. mppvideoenc: Rockchip MPP Video Encoder (not for rk2388 chip) rkximagesink: Video Render (sink) - kmssink on X11, for. Media Process Platform (MPP) module (by rockchip-linux) #media-library #hardware-acceleration. On de odon hd4685 philips sint augustinus veurne, back pediatrie guilherme, once santiago cifraclub olympic table tennis highlights 2012 ffmpeg extract specific audio track craccare, once sky go android 2014 yamaha yz250f top speed kuchnia polowa wynajem ktorego maca wybrac erik meyer salary ted naifeh bd refiner's fire jeremy passion red wine. 4 "Cantor" tau tshaj tawm hnub no. rockchip-mali feat: add Odroid Go Super (odroidgo3) support and update rockchip libmali to r13p0: 8 months ago: rockchip-mali-bifrost-vulkan feat: add Odroid Go Super (odroidgo3) support and update rockchip libmali to r13p0: 8 months ago: rockchip-mpp feat: add rockchip-mpp and optimized ffmpeg: 11 months ago. 比如,短视频平台Revvel将视频转码服务迁移到AWS Lambda和S3上,节省了大量费用和运维成本. Oct 11, 2021 · To test decoding, use the following command: ffmpeg -hwaccel dxva2 -threads 1 -i INPUT -f null - -benchmark VideoToolbox VideoToolbox, only supported on macOS. Maintainer [email protected] Statisticsclose star 0 call_split 0 access_time 2018-01-17. Successfully parsed a group of options. 04-GPT-20200630-1405. > - Frame. Maintainer [email protected] MPP Viewer is a simple viewer for Microsoft Project files. 0-1ayufan3-2 arm64 Media Process Platform ii librockchip-mpp1 1. The mpv player supports Rockchip MPP video decoder, so it supports 4K hardware decoding. But we needed to switch to 4. diff ffmpeg-libcdio_cdda-pkgconfig. 3 'Hilbert', a new major release, is now available! Some of the highlights: Apple Pixlet decoder; NewTek SpeedHQ decoder; QDMC. Using OpenJPEG now requires 2. 3: - CrystalHD decoder moved to new decode API - add internal ebur128 library, remove external libebur128 dependency - Pro-MPEG CoP #3-R2 FEC protocol - premultiply video filter - Support for. Nov yog yuav ua li cas rau nruab nws hauv Ubuntu 14. Tue Jul 25, 2017 8:58 pm. Our ongoing work on the reverse-engineered Panfrost OpenGL ES. tar可在瑞芯微平台上实现视频硬解码,降低cpu占比,并可多路同时使用mpp h264编解码库进行硬解码。 ffmpeg-4. In part two of this series, I compiled the master branch of ffmpeg on the OrangePi RK3399, with the hope we would get hardware acceleration automagically and failed. > > Changes from Previous patch : > - Frame colorspace info is now filled. Жаңы нерселерди көрүү үчүн чыкылдатыңыз i. Prestige: 0. 726, "AAL2-G726" for big-endian G. 0-1 arm64 GObject introspection data for the GStreamer library ii librockchip-mpp-dev 1. 它屏蔽了有关芯片的复杂底层处理,屏蔽了不同芯片的差异,为使用者提供了统一的视频媒体统一接口。. One of the reasons for this is that I have lately been getting more and more into building embedded systems of various kinds and probably the largest annoyance in all this is the issue of the operating system that controls the hardware. 264数据后直接灌入到mpp中。 rockchip-linux/mpp. Popular MPV Open-Source Media Player Gets FFmpeg 3. -plugins-ugly gstreamer1. inc directory in each module folder is for external module usage. View PKGBUILD / View Changes; Download snapshot; Search wiki; Flag package out-of-date. After a flush new buffers should be able to be decoded but the eos_reached flag causes all the frames to be dropped. 3 "Hilbert" FFmpeg 3. Tue Jul 25, 2017 8:58 pm. About Rockchip Px6. The information herein is subject to change without notice. Security update for ffmpeg. 100 Duration: 00:00:18. A lightweight, portable pure C99 onnx inference engine for embedded devices with hardware acceleration support. libva will be asked for later on, so let’s compile and install it now:. After simplification, there is only one. Parsing a group of options: input url dts_5frames. 60 (stable Ubuntu 18. Rockchip MPP (Media Process Platfrom) Optiga Trust M ⭐ 55. 04 орнотуу керек. Omx H264 Decoder. Answer questions WainDing. -plugins-base gstreamer1. In order to simplify the use, we provide a script start-mpv. Description: * VP9 tile threading support * KMS screen grabber * CUDA thumbnail filter * V4L2 mem2mem HW assisted codecs * Rockchip MPP hardware decoding * (Not in openSUSE builds, only original ones:) * Gremlin Digital Video demuxer and decoder * Additional. - writing pulseaudio based audio capturing and playing applications. 726, "AAL2-G726" for big-endian G. mpv is a fork of mplayer2 and MPlayer. dvb: Implement parsing of modulation for VDR-style channels config. From: ayaka <> Subject [PATCH 2/4] [WIP] staging: video: rockchip: vdpu2: Date: Thu, 31 Jan 2019 11:13:31 +0800. doppioDB - A hardware accelerated database. 4 "Cantor" tau tshaj tawm hnub no. 1 but basic rockchip acceleration support was already included via the RK-MPP in ffmpeg-3. Changelog for FFmpeg 4. A rockchip-mpp V4L2 wrapper plugin for chromium V4L2 VDA/VEA Streamer ⭐ 7 This project is based on rk3399 mpp librarys and aims at publishing camera data into RTMP server. A lightweight, portable pure C99 onnx inference engine for embedded devices with hardware acceleration support. 5测试通过) 推流框架:live555 编解码库:rockchip mpp编解码库 图像数据:usb摄像头(Explain how to push RTSP stream based on tb-rk3399prod development board,. The Rootfs is based on the Linaro build project. Use ffmpeg libstagefright (overview of libstagefright) or use libstagefright in the OS directly, like here. Now, let's try to compile RockChip's ffmpeg fork on this very machine, if that could ever help us getting hardware acceleration. 如果大家熟悉FFMPEG,那学习MPP会非常容易,MPP和FFMPEG的api非常相像。 Mpp库自带的sample基本可以带大家入手。 MPP编译 1. 3 "Hilbert", a new major release, is now available! Some of the highlights: Apple Pixlet decoder; NewTek SpeedHQ decoder; QDMC. 000000] Booting Linux on physical CPU 0x0000000000 [0x410fd042] [ 0. MPP库是Rockchip根据自己的硬编解码器开发的应用程序编解码库,如果想达到最好的效果,必须要通过librockchip_mpp来直接编码实现编解码。 gstreamer和ffmpeg都会因为兼容api的原因,徒增几次无用的帧拷贝动作,并且使用的都是虚拟地址。. OverSun wrote: Specially build ffmpeg library is needed for rockchip mpp (hw decoding support). 000000, bitrate: 7813 kb/s Stream #0:0(und): Video: h264 (Main) (avc1 / 0x31637661), yuv420p(yuv420p) , 1920x1080 [SAR 1:1 DAR 16:9], Closed Captions. Аны кантип Ubuntu 14. If you use the bootstrap. Parsing a group of options: input url dts_5frames. It provides an eMMC module socket, MicroSD Card slot, Pi-2 Bus, Pi-P5+ Bus, USB 3. 我用的firefly rockchip系列芯片的SDK,这个SDK可以制作芯片系统的所有文件,虽然给的链接是rk3399-jd4版本的SDK,但是在一个SDK是能够编译所有rk系列芯片的linux固件的。这个SDK既可以制作ubuntu,debian等linux固件,也可以制作buildroot固件。SDK的架构如下:├── linux_sdk│ ├── app│ ├── buildroot buildroot. 4 via PPA in Ubuntu: Not recommended to upgrade from distribution build of FFmpeg, unless you need the latest version for special reasons. for rockchip I collect these packages separately 1, 2: ffmpeg-r95909. FFMPEG rtmp推流. git: AUR Package Repositories | click here to return to the package base details page. 2_build43-R7-redhat7. com/rockchip-linux/ffmpeg/tree/rockchip/release/4. 它屏蔽了有关芯片的复杂底层处理,屏蔽了不同芯片的差异,为使用者提供了统一的视频媒体统一接口。. I'm using Armbian Bionic 5. Other changes include: Other changes include: Add DRM_PRIME Format Handling and Display for RockChip MPP decoders. MPP是瑞芯微提供的媒体处理软件平台,适用于瑞芯微芯片系列。. header file arrange rule a. mppvideoenc: Rockchip MPP Video Encoder (not for rk2388 chip) rkximagesink: Video Render (sink) - kmssink on X11, for. 特别留意 --enable-rkmpp --enable-libdrm 因为mpp依赖drm相关的framebuffer。 ffmpeg rkmpp依赖mpp库librockchip_mpp. User can release MppBufferGroup after decoder is closed. Rockchip pushed an updated 4. 1: avcodec/tiff: Check input space in dng_decode_jpeg () avcodec/mjpeg_parser: Adjust size rejection threshold avcodec/cbs_jpeg: Fix uninitialized end index in cbs_jpeg_split. The right questions: Is your video player aware of this ? Are you ready to configure your video player (ffmpeg based) to use hardware accelerated decoding ? ffmpeg must be compiled with "--enable-rkmpp" and "--enable-libdrm". 726, "AAL2-G726" for big-endian G. I would suggest testing the VPU driver and mpp using Rockchip's gstreamer plugins or possibly LongChair's mpv/ffmpeg. FFmpeg 硬件加速方案概览 (下). 193-rockchip-standard ([email protected]) (gcc version 9. The Rockchip currently sends no mastering primaries, min/max mastering luminance level metadata - as well as not sending MaxCLL and MaxFALL)** kwiboo has also confirmed that the audio output is only flagged as PCM - relying on AVRs to recognise that there is a valid bitstream rather than it being flagged (which I think is basically luck based. 参考: 瑞芯微社区RK3399Pro入门教程(8)6路1080P30帧解码显示范例. 7890937 100755. WRITE_SETTINGS in package: com. doppioDB - A hardware accelerated database. FFmpeg мультимедиялык китепканасы 3. Signed-off-by: Jonas Karlman. Changelog for FFmpeg 4. FFMPEG rtmp推流. 726: version 3. 被称为“多媒体技术领域的瑞士军刀”,FFmpeg拥有广泛的应用基础。. 技术标签: 流媒体 rockchip. The gst-rtsp-server is not a gstreamer plugin, but a library which can be used to implement your own RTSP application.